百度云资源论坛

 找回密码
 立即注册
搜索
热搜: 百度云资源
开启左侧

哭泣女人的诅咒 The.Curse.of.La.Llorona.2019.720p.BluRay.x264-AAA 3.28GB

[复制链接]
百度云资源 发表于 2019-8-6 08:37:35 | 显示全部楼层 |阅读模式




帖子完整标题:哭泣女人的诅咒 The.Curse.of.La.Llorona.2019.720p.BluRay.x264-AAA 3.28GB





◎译  名 哭泣女人的诅咒 / The Children / The Curse of the Weeping Woman / 哭泣的女人(台) / 哭泣的女诡(港) / 孩子们 / 泣妇的诅咒(豆友译名) / 泣妇诅咒
◎片  名 The Curse of La Llorona
◎年  代 2019
◎产  地 美国
◎类  别 悬疑 / 惊悚 / 恐怖
◎语  言 英语
◎上映日期 2019-04-19(美国)
◎IMDb评分  5.7/10 from 10542 users
◎片  长 93分钟
◎导  演 迈克尔·查维斯 Michael Chaves
◎编  剧 米琪·多特里 Mikki Daughtry / 托拜厄斯·伊康尼斯 Tobias Iaconis
◎主  演 琳达·卡德里尼 Linda Cardellini
      帕翠西娅·维拉奎兹 Patricia Velasquez
      雷蒙德·克鲁斯 Raymond Cruz
      玛德琳·麦格劳 Madeleine McGraw
      西恩·帕特里克·汤玛斯 Sean Patrick Thomas
      伊蕾娜·肯 Irene Keng
      里卡多·马姆多 Ricardo Mamood
      安德鲁·T·李 Andrew T. Lee
      玛丽索尔·拉米雷斯 Marisol Ramirez
      约翰·马歇尔·琼斯 John Marshall Jones
      杰妮-琳恩·金辰 Jaynee-Lynne Kinchen


◎标  签 温子仁 | 恐怖 | 惊悚 | 美国 | 2019 | 灵异 | 悬疑 | 招魂宇宙

◎简  介  

  新线恐怖片[孩子们]更名为[哭泣的女人的诅咒](The Curse of La Llorona,暂译),温子仁担任制片,其公司Atomic Monsters担任制作。导演迈克尔·查维斯,主演琳达·卡德里尼。墨西哥传说中有一个“哭泣的女人”的故事, 一个丢了自己孩子的女人开始掠夺其它人家的孩子。片中的单身母亲在调查儿童失踪案时发现这个“哭泣的女人”似乎就在她的身边。

Video
ID                                       : 1
Format                                   : AVC
Format/Info                              : Advanced Video Codec
Format settings                          : CABAC / 5 Ref Frames
Format settings, CABAC                   : Yes
Format settings, Reference frames        : 5 frames
Codec ID                                 : V_MPEG4/ISO/AVC
Duration                                 : 1 h 33 min
Bit rate                                 : 4 579 kb/s
Width                                    : 1 280 pixels
Height                                   : 536 pixels
Display aspect ratio                     : 2.40:1
Frame rate mode                          : Constant
Frame rate                               : 23.976 (24000/1001) FPS
Color space                              : YUV
Chroma subsampling                       : 4:2:0
Bit depth                                : 8 bits
Scan type                                : Progressive
Bits/(Pixel*Frame)                       : 0.278
Stream size                              : 2.98 GiB (91%)
Writing library                          : x264 core 157 r2969 d4099dd
Encoding settings                        : cabac=1 / ref=5 / deblock=1:1:1 / analyse=0x3:0x133 / me=umh / subme=8 / psy=1 / psy_rd=1.00:0.00 / mixed_ref=1 / me_range=16 / chroma_me=1 / trellis=2 / 8x8dct=1 / cqm=0 / deadzone=21,11 / fast_pskip=0 / chroma_qp_offset=-2 / threads=17 / lookahead_threads=2 / sliced_threads=0 / nr=0 / decimate=1 / interlaced=0 / bluray_compat=0 / constrained_intra=0 / bframes=3 / b_pyramid=2 / b_adapt=2 / b_bias=0 / direct=3 / weightb=1 / open_gop=0 / weightp=2 / keyint=250 / keyint_min=23 / scenecut=40 / intra_refresh=0 / rc_lookahead=50 / rc=2pass / mbtree=1 / bitrate=4579 / ratetol=1.0 / qcomp=0.60 / qpmin=0 / qpmax=69 / qpstep=4 / cplxblur=20.0 / qblur=0.5 / ip_ratio=1.40 / aq=1:1.00
Language                                 : English
Default                                  : Yes
Forced                                   : No

Audio
ID                                       : 2
Format                                   : AC-3
Format/Info                              : Audio Coding 3
Commercial name                          : Dolby Digital
Codec ID                                 : A_AC3
Duration                                 : 1 h 33 min
Bit rate mode                            : Constant
Bit rate                                 : 448 kb/s
Channel(s)                               : 6 channels
Channel layout                           : L R C LFE Ls Rs
Sampling rate                            : 48.0 kHz
Frame rate                               : 31.250 FPS (1536 SPF)
Bit depth                                : 16 bits
Compression mode                         : Lossy
Stream size                              : 299 MiB (9%)
Language                                 : English
Service kind                             : Complete Main
Default                                  : Yes
Forced                                   : No

Menu
00:00:00.000                             : en:00:00:00.000
00:09:24.355                             : en:00:09:24.355
00:18:21.267                             : en:00:18:21.267
00:28:09.104                             : en:00:28:09.104
00:38:14.209                             : en:00:38:14.209
00:48:09.595                             : en:00:48:09.595
00:58:07.317                             : en:00:58:07.317
01:09:04.557                             : en:01:09:04.557
01:18:15.149                             : en:01:18:15.149
01:26:30.727                             : en:01:26:30.727




                                                                                                                                                                                                        
                                                                                                                                                                                                                                                                                                                                                                                                                                                                                                                                                                                                                                                                                                                                                                                                                                                        
a403cfa3f6637d064e573e7ea004c996.torrent (33.67 KB, 下载次数: 0)

回复

使用道具 举报

小黑屋|百度云资源论坛 ( 闽ICP备16005822号-1 )

本网站所有资源来自网络,如无意中侵犯了您的权益,请发邮件至 [email protected],立即清除相关链接

GMT+8, 2019-8-26 16:25 , Processed in 0.060126 second(s), 19 queries .

Powered by Discuz! X3.2

© 2001-2013 Comsenz Inc.

快速回复 返回顶部 返回列表