百度云资源论坛

 找回密码
 立即注册
搜索
热搜: 百度云资源
开启左侧

丑娃娃 UglyDolls.2019.720p.BluRay.x264-GECKOS 2.66GB

[复制链接]
百度云资源 发表于 2019-8-6 08:37:36 | 显示全部楼层 |阅读模式




帖子完整标题:丑娃娃 UglyDolls.2019.720p.BluRay.x264-GECKOS 2.66GB





◎译  名 丑娃娃 / Ugly Dolls / Uglydoll / 样衰衰奇兵(港)
◎片  名 UglyDolls
◎年  代 2019
◎产  地 中国大陆 / 加拿大 / 美国
◎类  别 喜剧 / 动画 / 奇幻 / 冒险
◎语  言 英语
◎上映日期 2019-05-03(美国) / 2019-08-09(中国大陆)
◎片  长 87分钟
◎导  演 凯利·阿斯博瑞 Kelly Asbury
◎编  剧 大卫·霍瓦特 David Horvath / 金鲜珉 Sun-min Kim / 艾莉森·佩克 Alison Peck / 埃丽卡·里维诺亚 Erica Rivinoja / 王安安 Vivian Wang / 刘国庆
◎主  演 艾玛·罗伯茨 Emma Roberts
      加奈儿·梦奈 Janelle Monáe
      尼克·乔纳斯 Nick Jonas
      碧碧·雷克萨 Bebe Rexha
      婉妲·塞克丝 Wanda Sykes
      加布里埃尔·伊格莱西亚斯 Gabriel Iglesias
      凯莉·克拉克森 Kelly Clarkson
      查莉·XCX Charli XCX
      布莱克·谢尔顿 Blake Shelton
      皮特保罗 Pitbull
      王力宏 Lee-Hom Wang


◎标  签 动画 | 2019 | 美国 | 喜剧 | 治愈 | 奇幻 | 搞笑 | 冒险

◎简  介  

  该片讲述了丑娃娃们探索未知世界寻找真正自我的冒险之旅的故事。生活在丑娃镇上的丑娃娃们前往一个叫完美学院的地方探险,那里的娃娃们都精致漂亮,会在毕业前接受训练,然后被送到真实世界里成为孩子们心爱的玩具。小希要和小伙伴们在那里接受训练变身完美娃娃,这对于他们来说并不容易。小希能否完成蜕变,找到属于自己的主人,故事还在继续展开……

Video
ID                                       : 1
Format                                   : AVC
Format/Info                              : Advanced Video Codec
Format settings                          : CABAC / 9 Ref Frames
Format settings, CABAC                   : Yes
Format settings, Reference frames        : 9 frames
Codec ID                                 : V_MPEG4/ISO/AVC
Duration                                 : 1 h 27 min
Bit rate                                 : 2 801 kb/s
Width                                    : 1 280 pixels
Height                                   : 696 pixels
Display aspect ratio                     : 1.85:1
Frame rate mode                          : Constant
Frame rate                               : 23.976 (24000/1001) FPS
Color space                              : YUV
Chroma subsampling                       : 4:2:0
Bit depth                                : 8 bits
Scan type                                : Progressive
Bits/(Pixel*Frame)                       : 0.131
Stream size                              : 1.72 GiB (65%)
Writing library                          : x264 core 158 r2984 3759fcb
Encoding settings                        : cabac=1 / ref=9 / deblock=1:1:1 / analyse=0x3:0x113 / me=umh / subme=8 / psy=1 / psy_rd=0.40:0.00 / mixed_ref=1 / me_range=16 / chroma_me=1 / trellis=1 / 8x8dct=1 / cqm=0 / deadzone=21,11 / fast_pskip=1 / chroma_qp_offset=-2 / threads=22 / lookahead_threads=3 / sliced_threads=0 / nr=0 / decimate=1 / interlaced=0 / bluray_compat=0 / constrained_intra=0 / bframes=5 / b_pyramid=2 / b_adapt=1 / b_bias=0 / direct=3 / weightb=1 / open_gop=0 / weightp=2 / keyint=250 / keyint_min=23 / scenecut=40 / intra_refresh=0 / rc_lookahead=50 / rc=2pass / mbtree=1 / bitrate=2801 / ratetol=1.0 / qcomp=0.60 / qpmin=0 / qpmax=69 / qpstep=4 / cplxblur=20.0 / qblur=0.5 / ip_ratio=1.40 / aq=1:0.60
Language                                 : English
Default                                  : Yes
Forced                                   : No

Audio
ID                                       : 2
Format                                   : DTS
Format/Info                              : Digital Theater Systems
Codec ID                                 : A_DTS
Duration                                 : 1 h 27 min
Bit rate mode                            : Constant
Bit rate                                 : 1 509 kb/s
Channel(s)                               : 6 channels
Channel layout                           : C L R Ls Rs LFE
Sampling rate                            : 48.0 kHz
Frame rate                               : 93.750 FPS (512 SPF)
Bit depth                                : 24 bits
Compression mode                         : Lossy
Stream size                              : 948 MiB (35%)
Language                                 : English
Default                                  : Yes
Forced                                   : No

Menu
00:00:00.000                             : en:00:00:00.000
00:05:31.331                             : en:00:05:31.331
00:09:12.260                             : en:00:09:12.260
00:14:14.145                             : en:00:14:14.145
00:18:58.304                             : en:00:18:58.304
00:21:17.234                             : en:00:21:17.234
00:25:28.152                             : en:00:25:28.152
00:29:24.680                             : en:00:29:24.680
00:32:01.128                             : en:00:32:01.128
00:34:52.465                             : en:00:34:52.465
00:40:21.919                             : en:00:40:21.919
00:44:45.099                             : en:00:44:45.099
00:51:15.739                             : en:00:51:15.739
00:55:46.969                             : en:00:55:46.969
00:59:33.904                             : en:00:59:33.904
01:02:04.554                             : en:01:02:04.554
01:07:05.063                             : en:01:07:05.063
01:12:36.852                             : en:01:12:36.852
01:16:31.128                             : en:01:16:31.128
01:19:44.863                             : en:01:19:44.863




                                                                                                                                                                                                        
                                                                                                                                                                                                                                                                                                                                                                                                                                                                                                                                                                                                                                                                                                                                                                                                                                                        
7ac8be1413a63ae86136f4cdeb6fbd65.torrent (27.39 KB, 下载次数: 0)

回复

使用道具 举报

小黑屋|百度云资源论坛 ( 闽ICP备16005822号-1 )

本网站所有资源来自网络,如无意中侵犯了您的权益,请发邮件至 [email protected],立即清除相关链接

GMT+8, 2019-8-26 16:21 , Processed in 0.065003 second(s), 19 queries .

Powered by Discuz! X3.2

© 2001-2013 Comsenz Inc.

快速回复 返回顶部 返回列表