百度云资源论坛

 找回密码
 立即注册
搜索
热搜: 百度云资源
开启左侧

最后一步 Cold.Blood.2019.720p.BluRay.x264-SADPANDA 4.36GB

[复制链接]
百度云电影 发表于 2019-9-10 07:54:41 | 显示全部楼层 |阅读模式




帖子完整标题:最后一步 Cold.Blood.2019.720p.BluRay.x264-SADPANDA 4.36GB





◎译  名 最后一步 / Cold Blood / The Last Step / 冷血遗产
◎片  名 Cold Blood Legacy
◎年  代 2019
◎产  地 法国 / 英国
◎类  别 动作 / 惊悚
◎上映日期 2019-05-15(法国)
◎IMDb评分  4.5/10 from 1253 users
◎片  长 91分钟
◎导  演 Frederick Petitjean
◎编  剧 Frederick Petitjean
◎主  演 让·雷诺 Jean Reno
       莎拉·林德 Sarah Lind
       汤姆·霍珀 Tom Hopper


◎标  签 让·雷诺 | 犯罪 | 动作 | 让雷诺 | 法国电影 | 惊悚 | 美国电影 | 法国

◎简  介  

  让·雷诺参演动作惊悚片[最后一步](The Last Step,暂译)。弗雷德里奇·佩蒂让([算命好养家])自编自导。莎拉·林德、汤姆·霍珀加盟该片。亨利(让·雷诺饰)是具有传奇色彩的杀手,他本在湖边小屋安度生活,而一个在事故中逃生的年轻女子(莎拉·林德饰)却改变他的生活。该片将在12月开拍。
Video
ID                                       : 1
Format                                   : AVC
Format/Info                              : Advanced Video Codec
Format settings                          : CABAC / 5 Ref Frames
Format settings, CABAC                   : Yes
Format settings, Reference frames        : 5 frames
Codec ID                                 : V_MPEG4/ISO/AVC
Duration                                 : 1 h 31 min
Bit rate                                 : 5 328 kb/s
Width                                    : 1 280 pixels
Height                                   : 536 pixels
Display aspect ratio                     : 2.40:1
Frame rate mode                          : Constant
Frame rate                               : 23.976 (24000/1001) FPS
Color space                              : YUV
Chroma subsampling                       : 4:2:0
Bit depth                                : 8 bits
Scan type                                : Progressive
Bits/(Pixel*Frame)                       : 0.324
Stream size                              : 3.40 GiB (78%)
Writing library                          : x264 core 157 r2969 d4099dd
Encoding settings                        : cabac=1 / ref=5 / deblock=1:-3:-3 / analyse=0x3:0x113 / me=umh / subme=8 / psy=1 / psy_rd=1.00:0.25 / mixed_ref=1 / me_range=24 / chroma_me=1 / trellis=1 / 8x8dct=1 / cqm=0 / deadzone=21,11 / fast_pskip=1 / chroma_qp_offset=-4 / threads=17 / lookahead_threads=2 / sliced_threads=0 / nr=0 / decimate=1 / interlaced=0 / bluray_compat=0 / constrained_intra=0 / bframes=3 / b_pyramid=2 / b_adapt=1 / b_bias=0 / direct=3 / weightb=1 / open_gop=0 / weightp=2 / keyint=240 / keyint_min=24 / scenecut=40 / intra_refresh=0 / rc_lookahead=50 / rc=2pass / mbtree=1 / bitrate=5328 / ratetol=1.0 / qcomp=0.60 / qpmin=0 / qpmax=69 / qpstep=4 / cplxblur=20.0 / qblur=0.5 / ip_ratio=1.40 / aq=1:0.75
Default                                  : Yes
Forced                                   : No

Audio
ID                                       : 2
Format                                   : DTS
Format/Info                              : Digital Theater Systems
Codec ID                                 : A_DTS
Duration                                 : 1 h 31 min
Bit rate mode                            : Constant
Bit rate                                 : 1 509 kb/s
Channel(s)                               : 6 channels
Channel layout                           : C L R Ls Rs LFE
Sampling rate                            : 48.0 kHz
Frame rate                               : 93.750 FPS (512 SPF)
Bit depth                                : 24 bits
Compression mode                         : Lossy
Stream size                              : 986 MiB (22%)
Language                                 : English
Default                                  : Yes
Forced                                   : No

Menu
00:00:00.000                             : en:Chapter 01
00:07:52.472                             : en:Chapter 02
00:16:37.455                             : en:Chapter 03
00:24:23.253                             : en:Chapter 04
00:29:15.128                             : en:Chapter 05
00:40:00.106                             : en:Chapter 06
00:47:09.660                             : en:Chapter 07
00:56:05.404                             : en:Chapter 08
01:06:56.262                             : en:Chapter 09
01:11:38.544                             : en:Chapter 10
01:18:31.707                             : en:Chapter 11
01:25:20.115                             : en:Chapter 12




                                                                                                                                                                                                        
                                                                                                                                                                                                                                                                                                                                                                                                                                                                                                                                                                                                                                                                                                                                                                                                                                                      
be61b62417e9b202ac8cc38184b9d86b.torrent (44.25 KB, 下载次数: 0)

回复

使用道具 举报

小黑屋|百度云资源论坛 ( 闽ICP备16005822号-1 )

本网站所有资源来自网络,如无意中侵犯了您的权益,请发邮件至 [email protected],立即清除相关链接

GMT+8, 2019-9-20 03:55 , Processed in 0.075492 second(s), 19 queries .

Powered by Discuz! X3.2

© 2001-2013 Comsenz Inc.

快速回复 返回顶部 返回列表