百度云资源论坛

 找回密码
 立即注册
搜索
热搜: 百度云资源
开启左侧

[BT下载]乐高幻影忍者大电影[3D上下]2017.1080p.BluRay.Half-OU.x264.TrueHD-FGT 17GB ...

[复制链接]
网盘资源分享 发表于 2018-1-23 11:13:58 | 显示全部楼层 |阅读模式
自带中字

译  名 乐高幻影忍者大电影/乐高忍者大电影
片  名 The Lego Ninjago Movie
年  代 2017
产  地 美国/丹麦
类  别 喜剧/动作/动画/冒险
语  言 英语
上映日期 2017-09-22(美国)
片  长 101分钟
导  演 查理·宾 Charlie Bean / 保罗·费舍尔 Paul Fisher / 鲍勃·洛根 Bob Logan
主  演 成龙 Jackie Chan
      戴夫·弗兰科 Dave Franco
      弗莱德·阿米森 Fred Armisen
      库梅尔·南贾尼 Kumail Nanjiani
      迈克尔·佩纳 Michael Peña
      艾比·雅各布森 Abbi Jacobson
      扎克·伍兹 Zach Woods
      大卫·布伦斯 David Burrows
      贾斯汀·塞洛克斯 Justin Theroux
      黄阿丽 Ali Wong
      查琳·易 Charlyne Yi
      奥立薇娅·玛恩 Olivia Munn
      劳拉·奈特林格 Laura Kightlinger
      兰道尔·朴 Randall Park
      瑞塔 Retta
      克里斯·哈德维克 Chris Hardwick
      迈克尔·斯特拉罕 Michael Strahan
      罗宾·罗伯茨 Robin Roberts
      吴恬敏 Constance Wu
      加勒特·埃尔金斯 Garret Elkins
      托德·汉森 Todd Hansen
      道格·尼古拉斯 Doug Nicholas


简  介


  繁华时尚的忍者岛,乐高小人们过着快乐无忧的日子,除了……隔三差五会遭到邪恶魔头加满都(贾斯汀·塞洛克斯 Justin Theroux 配音)的入侵骚扰外。当然,幸亏有英勇无畏的幻影忍者,他们一次次挺身而出,与魔王大战,才使得忍者岛免于被邪恶统治的危险。绿色忍者劳埃德(戴夫·弗兰科 Dave Franco 饰)是加满都的亲生儿子,不知道他忍者身份的市民们因此经常嘲笑辱骂劳埃德。郁闷的青年只得将一腔怒火撒在以破坏为乐趣的加满都身上。在又一次遭到挫败后,加满都带着威力更强大的军团卷土重来。关键时刻,劳埃德启动了吴大师(成龙 配音)禁止使用的终极武器,最终给忍者岛带来毁灭性的灾难。
  为了拯救忍者岛,幻影忍者们跋山涉水,甚至与加满都展开了合作……


Video
ID                                       : 1
Format                                   : AVC
Format/Info                              : Advanced Video Codec
Format profile                           : mailto:[email protected]
Format settings                          : CABAC / 3 Ref Frames
Format settings, CABAC                   : Yes
Format settings, ReFrames                : 3 frames
Codec ID                                 : V_MPEG4/ISO/AVC
Duration                                 : 1 h 41 min
Bit rate                                 : 16.0 Mb/s
Width                                    : 1 920 pixels
Height                                   : 1 080 pixels
Display aspect ratio                     : 16:9
Frame rate mode                          : Constant
Frame rate                               : 23.976 (24000/1001) FPS
Color space                              : YUV
Chroma subsampling                       : 4:2:0
Bit depth                                : 8 bits
Scan type                                : Progressive
Bits/(Pixel*Frame)                       : 0.322
Stream size                              : 11.3 GiB (64%)
Title                                    : The.LEGO.Ninjago.Movie.2017.1080p.BluRay.Half-OU.x264.TrueHD.7.1.Atmos-FGT
Writing library                          : x264 core 148
Encoding settings                        : cabac=1 / ref=3 / deblock=1:-1:-1 / analyse=0x3:0 / me=hex / subme=5 / psy=1 / psy_rd=1.00:0.00 / mixed_ref=0 / me_range=16 / chroma_me=1 / trellis=1 / 8x8dct=1 / cqm=0 / deadzone=21,11 / fast_pskip=0 / chroma_qp_offset=0 / threads=32 / lookahead_threads=8 / sliced_threads=0 / nr=0 / decimate=1 / interlaced=0 / bluray_compat=0 / constrained_intra=0 / bframes=2 / b_pyramid=0 / b_adapt=1 / b_bias=0 / direct=1 / weightb=0 / open_gop=0 / weightp=0 / keyint=24 / keyint_min=2 / scenecut=40 / intra_refresh=0 / rc=abr / mbtree=0 / bitrate=16000 / ratetol=1.0 / qcomp=0.60 / qpmin=0 / qpmax=69 / qpstep=4 / ip_ratio=1.40 / pb_ratio=1.30 / aq=1:1.00
Default                                  : Yes
Forced                                   : No
Color range                              : Limited
Color primaries                          : BT.709
Transfer characteristics                 : BT.709
Matrix coefficients                      : BT.709


Audio #1
ID                                       : 2
Format                                   : TrueHD
Format profile                           : TrueHD+Atmos / TrueHD
Codec ID                                 : A_TRUEHD
Duration                                 : 1 h 41 min
Bit rate mode                            : Variable
Bit rate                                 : 3 939 kb/s
Maximum bit rate                         : 5 967 kb/s
Channel(s)                               : Object Based / 8 channels
Channel positions                        : Object Based / Front: L C R, Side: L R, Back: L R, LFE
Sampling rate                            :  / 48.0 kHz
Frame rate                               : 1 200.000 FPS (40 SPF)
Compression mode                         : Lossless
Stream size                              : 2.79 GiB (16%)
Title                                    : The.LEGO.Ninjago.Movie.2017.1080p.BluRay.Half-OU.x264.TrueHD.7.1.Atmos-FGT
Language                                 : English
Default                                  : Yes
Forced                                   : No


Audio #2
ID                                       : 3
Format                                   : AC-3
Format/Info                              : Audio Coding 3
Codec ID                                 : A_AC3
Duration                                 : 1 h 41 min
Bit rate mode                            : Constant
Bit rate                                 : 448 kb/s
Channel(s)                               : 6 channels
Channel positions                        : Front: L C R, Side: L R, LFE
Sampling rate                            : 48.0 kHz
Frame rate                               : 31.250 FPS (1536 SPF)
Bit depth                                : 16 bits
Compression mode                         : Lossy
Stream size                              : 325 MiB (2%)
Title                                    : The.LEGO.Ninjago.Movie.2017.1080p.BluRay.Half-OU.x264.TrueHD.7.1.Atmos-FGT
Language                                 : English
Service kind                             : Complete Main
Default                                  : No
Forced                                   : No


Audio #3
ID                                       : 4
Format                                   : AC-3
Format/Info                              : Audio Coding 3
Codec ID                                 : A_AC3
Duration                                 : 1 h 41 min
Bit rate mode                            : Constant
Bit rate                                 : 448 kb/s
Channel(s)                               : 6 channels
Channel positions                        : Front: L C R, Side: L R, LFE
Sampling rate                            : 48.0 kHz
Frame rate                               : 31.250 FPS (1536 SPF)
Bit depth                                : 16 bits
Compression mode                         : Lossy
Stream size                              : 325 MiB (2%)
Title                                    : The.LEGO.Ninjago.Movie.2017.1080p.BluRay.Half-OU.x264.TrueHD.7.1.Atmos-FGT
Language                                 : Chinese
Service kind                             : Complete Main
Default                                  : No
Forced                                   : No


Audio #4
ID                                       : 5
Format                                   : AC-3
Format/Info                              : Audio Coding 3
Codec ID                                 : A_AC3
Duration                                 : 1 h 41 min
Bit rate mode                            : Constant
Bit rate                                 : 448 kb/s
Channel(s)                               : 6 channels
Channel positions                        : Front: L C R, Side: L R, LFE
Sampling rate                            : 48.0 kHz
Frame rate                               : 31.250 FPS (1536 SPF)
Bit depth                                : 16 bits
Compression mode                         : Lossy
Stream size                              : 325 MiB (2%)
Title                                    : The.LEGO.Ninjago.Movie.2017.1080p.BluRay.Half-OU.x264.TrueHD.7.1.Atmos-FGT
Language                                 : Chinese
Service kind                             : Complete Main
Default                                  : No
Forced                                   : No


Audio #5
ID                                       : 6
Format                                   : AC-3
Format/Info                              : Audio Coding 3
Codec ID                                 : A_AC3
Duration                                 : 1 h 41 min
Bit rate mode                            : Constant
Bit rate                                 : 448 kb/s
Channel(s)                               : 6 channels
Channel positions                        : Front: L C R, Side: L R, LFE
Sampling rate                            : 48.0 kHz
Frame rate                               : 31.250 FPS (1536 SPF)
Bit depth                                : 16 bits
Compression mode                         : Lossy
Stream size                              : 325 MiB (2%)
Title                                    : The.LEGO.Ninjago.Movie.2017.1080p.BluRay.Half-OU.x264.TrueHD.7.1.Atmos-FGT
Language                                 : Korean
Service kind                             : Complete Main
Default                                  : No
Forced                                   : No


Audio #6
ID                                       : 7
Format                                   : AC-3
Format/Info                              : Audio Coding 3
Codec ID                                 : A_AC3
Duration                                 : 1 h 41 min
Bit rate mode                            : Constant
Bit rate                                 : 448 kb/s
Channel(s)                               : 6 channels
Channel positions                        : Front: L C R, Side: L R, LFE
Sampling rate                            : 48.0 kHz
Frame rate                               : 31.250 FPS (1536 SPF)
Bit depth                                : 16 bits
Compression mode                         : Lossy
Stream size                              : 325 MiB (2%)
Title                                    : The.LEGO.Ninjago.Movie.2017.1080p.BluRay.Half-OU.x264.TrueHD.7.1.Atmos-FGT
Language                                 : Danish
Service kind                             : Complete Main
Default                                  : No
Forced                                   : No


Audio #7
ID                                       : 8
Format                                   : AC-3
Format/Info                              : Audio Coding 3
Codec ID                                 : A_AC3
Duration                                 : 1 h 41 min
Bit rate mode                            : Constant
Bit rate                                 : 448 kb/s
Channel(s)                               : 6 channels
Channel positions                        : Front: L C R, Side: L R, LFE
Sampling rate                            : 48.0 kHz
Frame rate                               : 31.250 FPS (1536 SPF)
Bit depth                                : 16 bits
Compression mode                         : Lossy
Stream size                              : 325 MiB (2%)
Title                                    : The.LEGO.Ninjago.Movie.2017.1080p.BluRay.Half-OU.x264.TrueHD.7.1.Atmos-FGT
Language                                 : Finnish
Service kind                             : Complete Main
Default                                  : No
Forced                                   : No


Audio #8
ID                                       : 9
Format                                   : AC-3
Format/Info                              : Audio Coding 3
Codec ID                                 : A_AC3
Duration                                 : 1 h 41 min
Bit rate mode                            : Constant
Bit rate                                 : 448 kb/s
Channel(s)                               : 6 channels
Channel positions                        : Front: L C R, Side: L R, LFE
Sampling rate                            : 48.0 kHz
Frame rate                               : 31.250 FPS (1536 SPF)
Bit depth                                : 16 bits
Compression mode                         : Lossy
Stream size                              : 325 MiB (2%)
Title                                    : The.LEGO.Ninjago.Movie.2017.1080p.BluRay.Half-OU.x264.TrueHD.7.1.Atmos-FGT
Language                                 : Icelandic
Service kind                             : Complete Main
Default                                  : No
Forced                                   : No



The.LEGO.Ninjago.Movie.2017.1080p.BluRay.Half-OU.x264.TrueHD.7.1.Atmos-FGT[btbtt.torrent (89.08 KB, 下载次数: 0)

回复

使用道具 举报

小黑屋|百度云资源论坛 ( 闽ICP备16005822号-1 )

本网站所有资源来自网络,如无意中侵犯了您的权益,请发邮件至 [email protected],立即清除相关链接

GMT+8, 2019-10-22 20:33 , Processed in 0.084969 second(s), 18 queries .

Powered by Discuz! X3.4

© 2001-2017 Comsenz Inc.

快速回复 返回顶部 返回列表