百度云资源论坛

 找回密码
 立即注册
搜索
热搜: 百度云资源
开启左侧

[BT下载]星球大战8[3D上下]2017.1080p.3D.BluRay.Half-OU.x264.DTS-HD.MA.7.1-FGT 24G ...

[复制链接]
百度云分享 发表于 2018-3-31 17:06:45 | 显示全部楼层 |阅读模式
自带中字



译  名 星球大战8:最后的绝地武士/星球大战:最后绝地武士(港)/星球大战8/星战8
片  名 Star Wars: The Last Jedi
年  代 2017
产  地 美国
类  别 动作/科幻/冒险
语  言 英语
上映日期 2017-12-15(美国)/2018-01-05(中国大陆)
片  长 152分钟
导  演 莱恩·约翰逊 Rian Johnson
主  演 马克·哈米尔 Mark Hamill
      凯丽·费雪 Carrie Fisher
      黛西·雷德利 Daisy Ridley
      亚当·德赖弗 Adam Driver
      约翰·博耶加 John Boyega
      奥斯卡·伊萨克 Oscar Isaac
      安迪·瑟金斯 Andy Serkis
      露皮塔·尼永奥 Lupita Nyong'o
      多姆纳尔·格里森 Domhnall Gleeson
      安东尼·丹尼尔斯 Anthony Daniels
      格温多兰·克里斯蒂 Gwendoline Christie
      凯莉·玛丽·陈 Kelly Marie Tran
      劳拉·邓恩 Laura Dern
      本尼西奥·德尔·托罗 Benicio Del Toro
      弗兰克·奥兹 Frank Oz
      比莉·洛德 Billie Lourd
      阿曼达·劳伦斯 Amanda Lawrence
      吉米·维 Jimmy Vee
      贾斯汀·塞洛克斯 Justin Theroux
      蒂姆·罗斯 Tim Rose
      汤姆·凯恩 Tom Kane
      亚德里安·埃德蒙松 Adrian Edmondson
      马克·路易斯·琼斯 Mark Lewis Jones
      赫敏·科菲尔德 Hermione Corfield
      吴青芸 Thanh Van Ngo
      诺阿·西甘 Noah Segan
      保罗·卡塞 Paul Kasey
      米凯拉·科尔 Michaela Coel
      普瑞扬咖·伯福德 Priyanga Burford
      纳温·乔杜里 Navin Chowdhry
      安德鲁·杰克 Andrew Jack
      克里斯塔·克拉克 Crystal Clarke
      伊川东吾 Togo Igawa


简  介


  《星球大战:最后的绝地武士》承接前作《星球大战:原力觉醒》的剧情,讲述第一军团全面侵袭之下,蕾伊(黛西·雷德利 Daisy Ridley 饰)、芬恩(约翰·博耶加 John Boyega 饰)、波·达默龙(奥斯卡·伊萨克 Oscar Isaac 饰)三位年轻主角各自的抉 择和冒险故事。前作中觉醒强大原力的蕾伊独自寻访隐居的绝地大师卢克·天行者(马克·哈米尔 Mark Hamill 饰),在后者的指导下接受原力训练。芬恩接受了一项几乎不可能完成的任务,为此他不得不勇闯敌营,面对自己的过去。波·达默龙则要适应从战士向领袖的角色转换,这一过程中他也将接受一些血的教训。


获奖情况


  第90届奥斯卡金像奖  (2018)
  最佳视觉效果(提名) 尼尔·斯坎伦 / 本·莫里斯 / 克里斯·考博德 / 迈克尔·马尔霍兰
  最佳混音(提名) 伦·克斯 / 斯图尔特·威尔逊 / 大卫·帕克 / 迈克尔·斯曼内科
  最佳音效剪辑(提名) 伦·克斯 / 马修·伍德
  最佳原创配乐(提名) 约翰·威廉姆斯


  第71届英国电影学院奖  (2018)
  电影奖 最佳特殊视觉效果(提名)
  电影奖 最佳音效(提名)


  第22届美国艺术指导工会奖  (2018)
  电影奖 最佳幻想电影艺术指导(提名)


  第16届美国视觉效果协会奖  (2018)
  最佳特效电影视觉效果(提名)
  最佳电影虚拟摄影(提名)
  最佳真人电影模拟动画效果(提名)


  第54届美国声音效果协会奖  (2018)
  真人电影最佳音效(提名)




Video
ID                                       : 1
Format                                   : AVC
Format/Info                              : Advanced Video Codec
Format profile                           : Hig4.1
Format settings                          : CABAC / 3 Ref Frames
Format settings, CABAC                   : Yes
Format settings, ReFrames                : 3 frames
Codec ID                                 : V_MPEG4/ISO/AVC
Duration                                 : 2 h 31 min
Bit rate                                 : 16.0 Mb/s
Width                                    : 1 920 pixels
Height                                   : 1 080 pixels
Display aspect ratio                     : 16:9
Frame rate mode                          : Constant
Frame rate                               : 23.976 (24000/1001) FPS
Color space                              : YUV
Chroma subsampling                       : 4:2:0
Bit depth                                : 8 bits
Scan type                                : Progressive
Bits/(Pixel*Frame)                       : 0.322
Stream size                              : 16.9 GiB (68%)
Title                                    : Star.Wars.The.Last.Jedi.2017.1080p.3D.BluRay.Half-OU.x264.DTS-HD.MA.7.1-FGT
Writing library                          : x264 core 148
Encoding settings                        : cabac=1 / ref=3 / deblock=1:-1:-1 / analyse=0x3:0 / me=hex / subme=5 / psy=1 / psy_rd=1.00:0.00 / mixed_ref=0 / me_range=16 / chroma_me=1 / trellis=1 / 8x8dct=1 / cqm=0 / deadzone=21,11 / fast_pskip=0 / chroma_qp_offset=0 / threads=24 / lookahead_threads=6 / sliced_threads=0 / nr=0 / decimate=1 / interlaced=0 / bluray_compat=0 / constrained_intra=0 / bframes=2 / b_pyramid=0 / b_adapt=1 / b_bias=0 / direct=1 / weightb=0 / open_gop=0 / weightp=0 / keyint=24 / keyint_min=2 / scenecut=40 / intra_refresh=0 / rc=abr / mbtree=0 / bitrate=16000 / ratetol=1.0 / qcomp=0.60 / qpmin=0 / qpmax=69 / qpstep=4 / ip_ratio=1.40 / pb_ratio=1.30 / aq=1:1.00
Default                                  : Yes
Forced                                   : No
Color range                              : Limited
Color primaries                          : BT.709
Transfer characteristics                 : BT.709
Matrix coefficients                      : BT.709


Audio #1
ID                                       : 2
Format                                   : DTS
Format/Info                              : Digital Theater Systems
Format profile                           : MA / Core
Codec ID                                 : A_DTS
Duration                                 : 2 h 31 min
Bit rate mode                            : Variable / Constant
Bit rate                                 : 4 629 kb/s / 1 509 kb/s
Channel(s)                               : 8 channels / 6 channels
Channel positions                        : Front: L C R, Side: L R, Back: L R, LFE / Front: L C R, Side: L R, LFE
Sampling rate                            : 48.0 kHz
Frame rate                               : 93.750 FPS (512 SPF)
Bit depth                                : 24 bits
Compression mode                         : Lossless / Lossy
Stream size                              : 4.91 GiB (20%)
Title                                    : Star.Wars.The.Last.Jedi.2017.1080p.3D.BluRay.Half-OU.x264.DTS-HD.MA.7.1-FGT
Language                                 : English
Default                                  : Yes
Forced                                   : No


Audio #2
ID                                       : 3
Format                                   : DTS
Format/Info                              : Digital Theater Systems
Codec ID                                 : A_DTS
Duration                                 : 2 h 31 min
Bit rate mode                            : Constant
Bit rate                                 : 1 509 kb/s
Channel(s)                               : 6 channels
Channel positions                        : Front: L C R, Side: L R, LFE
Sampling rate                            : 48.0 kHz
Frame rate                               : 93.750 FPS (512 SPF)
Bit depth                                : 24 bits
Compression mode                         : Lossy
Stream size                              : 1.60 GiB (6%)
Title                                    : Star.Wars.The.Last.Jedi.2017.1080p.3D.BluRay.Half-OU.x264.DTS-HD.MA.7.1-FGT
Language                                 : English
Default                                  : No
Forced                                   : No


Audio #3
ID                                       : 4
Format                                   : AC-3
Format/Info                              : Audio Coding 3
Codec ID                                 : A_AC3
Duration                                 : 2 h 31 min
Bit rate mode                            : Constant
Bit rate                                 : 640 kb/s
Channel(s)                               : 6 channels
Channel positions                        : Front: L C R, Side: L R, LFE
Sampling rate                            : 48.0 kHz
Frame rate                               : 31.250 FPS (1536 SPF)
Bit depth                                : 16 bits
Compression mode                         : Lossy
Stream size                              : 695 MiB (3%)
Title                                    : Star.Wars.The.Last.Jedi.2017.1080p.3D.BluRay.Half-OU.x264.DTS-HD.MA.7.1-FGT
Language                                 : Chinese
Service kind                             : Complete Main
Default                                  : No
Forced                                   : No


Audio #4
ID                                       : 5
Format                                   : AC-3
Format/Info                              : Audio Coding 3
Codec ID                                 : A_AC3
Duration                                 : 2 h 31 min
Bit rate mode                            : Constant
Bit rate                                 : 640 kb/s
Channel(s)                               : 6 channels
Channel positions                        : Front: L C R, Side: L R, LFE
Sampling rate                            : 48.0 kHz
Frame rate                               : 31.250 FPS (1536 SPF)
Bit depth                                : 16 bits
Compression mode                         : Lossy
Stream size                              : 695 MiB (3%)
Title                                    : Star.Wars.The.Last.Jedi.2017.1080p.3D.BluRay.Half-OU.x264.DTS-HD.MA.7.1-FGT
Language                                 : Thai
Service kind                             : Complete Main
Default                                  : No
Forced                                   : No


Text #1
ID                                       : 6
Format                                   : PGS
Muxing mode                              : zlib
Codec ID                                 : S_HDMV/PGS
Codec ID/Info                            : Picture based subtitle format used on BDs/HD-DVDs
Duration                                 : 2 h 20 min
Bit rate                                 : 48.0 kb/s
Count of elements                        : 3350
Stream size                              : 48.3 MiB (0%)
Title                                    : English-PGS
Language                                 : English
Default                                  : Yes
Forced                                   : No


Text #2
ID                                       : 7
Format                                   : PGS
Muxing mode                              : zlib
Codec ID                                 : S_HDMV/PGS
Codec ID/Info                            : Picture based subtitle format used on BDs/HD-DVDs
Duration                                 : 2 h 22 min
Bit rate                                 : 34.7 kb/s
Count of elements                        : 3188
Stream size                              : 35.5 MiB (0%)
Title                                    : Thai-PGS
Language                                 : Thai
Default                                  : No
Forced                                   : No


Text #3
ID                                       : 8
Format                                   : PGS
Muxing mode                              : zlib
Codec ID                                 : S_HDMV/PGS
Codec ID/Info                            : Picture based subtitle format used on BDs/HD-DVDs
Duration                                 : 2 h 22 min
Bit rate                                 : 32.1 kb/s
Count of elements                        : 3104
Stream size                              : 32.7 MiB (0%)
Title                                    : Chinese-PGS
Language                                 : Chinese
Default                                  : No
Forced                                   : No


Text #4
ID                                       : 9
Format                                   : PGS
Muxing mode                              : zlib
Codec ID                                 : S_HDMV/PGS
Codec ID/Info                            : Picture based subtitle format used on BDs/HD-DVDs
Duration                                 : 2 h 22 min
Bit rate                                 : 28.8 kb/s
Count of elements                        : 3188
Stream size                              : 29.4 MiB (0%)
Title                                    : Chinese-PGS
Language                                 : Chinese
Default                                  : No
Forced                                   : No


Menu
00:00:00.000                             : en01)00:00:00:000
00:00:18.643                             : en02)00:00:18:643
00:01:45.730                             : en03)00:01:45:730
00:03:11.816                             : en04)00:03:11:816
00:07:43.296                             : en05)00:07:43:296
00:12:48.434                             : en06)00:12:48:434
00:13:44.573                             : en07)00:13:44:573
00:16:29.279                             : en000:16:29:279
00:19:59.281                             : en09)00:19:59:281
00:22:51.369                             : en10)00:22:51:369
00:26:04.980                             : en11)00:26:04:980
00:27:22.849                             : en12)00:27:22:849
00:31:24.757                             : en13)00:31:24:757
00:32:54.681                             : en14)00:32:54:681
00:35:27.667                             : en15)00:35:27:667
00:38:11.497                             : en16)00:38:11:497
00:41:53.427                             : en17)00:41:53:427
00:44:29.541                             : en100:44:29:541
00:46:51.475                             : en19)00:46:51:475
00:51:41.932                             : en20)00:51:41:932
00:53:50.060                             : en21)00:53:50:060
00:55:41.504                             : en22)00:55:41:504
00:57:39.581                             : en23)00:57:39:581
00:59:16.636                             : en24)00:59:16:636
01:02:05.847                             : en25)01:02:05:847
01:03:07.700                             : en26)01:03:07:700
01:05:41.729                             : en27)01:05:41:729
01:07:03.477                             : en201:07:03:477
01:10:25.721                             : en29)01:10:25:721
01:13:30.322                             : en30)01:13:30:322
01:17:43.450                             : en31)01:17:43:450
01:20:53.056                             : en32)01:20:53:056
01:24:17.969                             : en33)01:24:17:969
01:26:23.219                             : en34)01:26:23:219
01:27:59.524                             : en35)01:27:59:524
01:30:49.360                             : en36)01:30:49:360
01:32:54.568                             : en37)01:32:54:568
01:35:53.706                             : en301:35:53:706
01:37:10.616                             : en39)01:37:10:616
01:39:12.863                             : en40)01:39:12:863
01:42:07.663                             : en41)01:42:07:663
01:45:03.714                             : en42)01:45:03:714
01:49:35.694                             : en43)01:49:35:694
01:52:20.608                             : en44)01:52:20:608
01:56:04.749                             : en45)01:56:04:749
01:58:52.083                             : en46)01:58:52:083
02:03:11.133                             : en47)02:03:11:133
02:06:39.758                             : en402:06:39:758
02:11:43.604                             : en49)02:11:43:604
02:15:12.103                             : en50)02:15:12:103
02:20:16.699                             : en51)02:20:16:699
02:23:39.694                             : en52)02:23:39:694
02:31:51.393                             : en53)02:31:51:393







Star.Wars.The.Last.Jedi.2017.1080p.3D.BluRay.Half-OU.x264.DTS-HD.MA.7.1-FGT[btbt.torrent (62.6 KB, 下载次数: 0)

回复

使用道具 举报

小黑屋|百度云资源论坛 ( 闽ICP备16005822号-1 )

本网站所有资源来自网络,如无意中侵犯了您的权益,请发邮件至 [email protected],立即清除相关链接

GMT+8, 2019-10-22 20:37 , Processed in 0.060548 second(s), 18 queries .

Powered by Discuz! X3.4

© 2001-2017 Comsenz Inc.

快速回复 返回顶部 返回列表