百度云资源论坛

 找回密码
 立即注册
搜索
热搜: 百度云资源
开启左侧

我知女人心 What.Women.Want.2011.CHINESE.1080p.BluRay.x264.DTS-FGT 10.56GB

[复制链接]
sally756360 发表于 2019-7-4 06:50:32 | 显示全部楼层 |阅读模式
百度云
帖子完整标题:我知女人心 What.Women.Want.2011.CHINESE.1080p.BluRay.x264.DTS-FGT 10.56GB

百度云 百度云
百度云 百度云
百度云 百度云
百度云 百度云
百度云 百度云◎译  名 What Women Want / 芳心大盗
百度云 百度云◎片  名 我知女人心
百度云 百度云◎年  代 2011
百度云 百度云◎产  地 中国大陆 / 香港 / 韩国
百度云 百度云◎类  别 喜剧 / 爱情
百度云 百度云◎语  言 汉语普通话
百度云 百度云◎上映日期 2011-02-03(中国大陆)
百度云 百度云◎IMDb评分 5.6/10 from 1153 users
百度云 百度云◎片  长 117分钟
百度云 百度云◎导  演 陈大明 Daming Chen
百度云 百度云◎编  剧 陈大明 Daming Chen
百度云 百度云◎主  演 刘德华 Andy Lau
百度云 百度云      巩俐 Li Gong
百度云 百度云      袁莉 Li Yuan
百度云 百度云      陈志朋 Julian Chen
百度云 百度云      李诚儒 Chengru Li
百度云 百度云      胡静 Jing Hu
百度云 百度云      安雅 Anya
百度云 百度云      罗素
百度云 百度云      胡凯莉 Kelly Hu
百度云 百度云      虞俊达
百度云 百度云      潘霜霜 Shuangshuang Pan
百度云 百度云      赵晨浩
百度云 百度云
百度云 百度云
百度云 百度云◎标  签 刘德华 | 爱情 | 巩俐 | 喜剧 | 2011 | 中国电影 | 中国 | 香港
百度云 百度云
百度云 百度云◎简  介
百度云 百度云
百度云 百度云  百分百纯爷们的广告公司创意总监孙子钢(刘德华 饰)在公司里活得逍遥自在,本来马上就要升迁作执行创意总监的他忽然被传闻中的“广告杀手”李仪龙(巩俐 饰)抢了心仪已久的职位,这件事让他极其愤慨。一次意外触电,孙子钢突然能听到女人心里想什么。在片刻的荒乱之后,他开始利用这项特 异功能与叛逆的女儿沟通、讨女同事欢心,以及对付工作中的对手李仪龙。然而,能听到女人心思的他,居然开始慢慢的懂得女人的心思,并从内心学会尊重别人。而与李仪龙之间的关系,也从开始的对峙慢慢变成了惺惺相惜……
百度云 百度云本片翻拍自好莱坞的经典喜剧《偷听女人心》(What Women Want)。
百度云 百度云
Video
百度云 百度云ID : 1
百度云 百度云Format : AVC
百度云 百度云Format/Info : Advanced Video Codec
百度云 百度云Format settings : CABAC / 4 Ref Frames
百度云 百度云Format settings, CABAC : Yes
百度云 百度云Format settings, ReFrames : 4 frames
百度云 百度云Codec ID : V_MPEG4/ISO/AVC
百度云 百度云Duration : 1 h 56 min
百度云 百度云Bit rate : 11.5 Mb/s
百度云 百度云Width : 1 920 pixels
百度云 百度云Height : 816 pixels
百度云 百度云Display aspect ratio : 2.35:1
百度云 百度云Frame rate mode : Constant
百度云 百度云Frame rate : 24.000 FPS
百度云 百度云Color space : YUV
百度云 百度云Chroma subsampling : 4:2:0
百度云 百度云Bit depth : 8 bits
百度云 百度云Scan type : Progressive
百度云 百度云Bits/(Pixel*Frame) : 0.306
百度云 百度云Stream size : 9.33 GiB (88%)
百度云 百度云Title : What.Women.Want.2011.CHINESE.1080p.BluRay.x264.DTS-FGT
百度云 百度云Writing library : x264 core 148 r2795M aaa9aa8
百度云 百度云Encoding settings : cabac=1 / ref=4 / deblock=1:-2:-2 / analyse=0x3:0x113 / me=umh / subme=9 / psy=1 / psy_rd=1.00:0.15 / mixed_ref=1 / me_range=16 / chroma_me=1 / trellis=2 / 8x8dct=1 / cqm=0 / deadzone=21,11 / fast_pskip=1 / chroma_qp_offset=-3 / threads=24 / lookahead_threads=3 / sliced_threads=0 / nr=0 / decimate=1 / interlaced=0 / bluray_compat=0 / constrained_intra=0 / bframes=3 / b_pyramid=2 / b_adapt=1 / b_bias=0 / direct=3 / weightb=1 / open_gop=0 / weightp=2 / keyint=250 / keyint_min=25 / scenecut=40 / intra_refresh=0 / rc_lookahead=50 / rc=2pass / mbtree=1 / bitrate=11500 / ratetol=1.0 / qcomp=0.60 / qpmin=0 / qpmax=69 / qpstep=4 / cplxblur=20.0 / qblur=0.5 / vbv_maxrate=31250 / vbv_bufsize=31250 / nal_hrd=none / filler=0 / ip_ratio=1.40 / aq=1:1.00
百度云 百度云Language : Chinese
百度云 百度云Default : Yes
百度云 百度云Forced : No
百度云 百度云
百度云 百度云Audio
百度云 百度云ID : 2
百度云 百度云Format : DTS
百度云 百度云Format/Info : Digital Theater Systems
百度云 百度云Codec ID : A_DTS
百度云 百度云Duration : 1 h 56 min
百度云 百度云Bit rate mode : Constant
百度云 百度云Bit rate : 1 509 kb/s
百度云 百度云Channel(s) : 6 channels
百度云 百度云Channel layout : C L R Ls Rs LFE
百度云 百度云Sampling rate : 48.0 kHz
百度云 百度云Frame rate : 93.750 FPS (512 SPF)
百度云 百度云Bit depth : 16 bits
百度云 百度云Compression mode : Lossy
百度云 百度云Stream size : 1.22 GiB (12%)
百度云 百度云Title : What.Women.Want.2011.CHINESE.1080p.BluRay.x264.DTS-FGT
百度云 百度云Language : Chinese
百度云 百度云Default : Yes
百度云 百度云Forced : No
百度云 百度云
百度云 百度云Text
百度云 百度云ID : 3
百度云 百度云Format : UTF-8
百度云 百度云Codec ID : S_TEXT/UTF8
百度云 百度云Codec ID/Info : UTF-8 Plain Text
百度云 百度云Duration : 1 h 51 min
百度云 百度云Bit rate : 48 b/s
百度云 百度云Count of elements : 1578
百度云 百度云Stream size : 39.7 KiB (0%)
百度云 百度云Language : English
百度云 百度云Default : Yes
百度云 百度云Forced : No

百度云 百度云https://imagecurl.com/viewer.php?pold=16336190086619978228.pngplugin.php?id=dxksst_download:download&inf=YXR0YWNobWVudHxNVEk0TnprNWZHRTJOVE0xWmpVd2ZERTFOakkyTXpBM056SjhNSHd4T1RNd05EWSUzRHx0b3JyZW50fDU0NjIyfDExfDNkZTBiZmI4YmYxYzE2OTRmMWQ5Yjk2OWM0MTcyM2QzLnRvcnJlbnR8MHw=">3de0bfb8bf1c1694f1d9b969c41723d3.torrent(53.34 KB)5 天前 上传
百度云 百度云点击文件名下载附件
百度云 百度云3de0bfb8bf1c1694f1d9b969c41723d3.torrent
回复

使用道具 举报

小黑屋|百度云资源论坛 ( 闽ICP备16005822号-1 )

本网站所有资源来自网络,如无意中侵犯了您的权益,请发邮件至 2571535523@qq.com,立即清除相关链接

GMT+8, 2019-7-16 17:13 , Processed in 0.081983 second(s), 16 queries .

Powered by Discuz! X3.2

© 2001-2013 Comsenz Inc.

快速回复 返回顶部 返回列表