百度云资源论坛

 找回密码
 立即注册
搜索
热搜: 百度云资源
开启左侧

情迷意乱 Yearning.1964.JAPANESE.1080p.BluRay.x264.DTS-FGT 8.42GB

[复制链接]
Ssmhn 发表于 2019-7-4 06:50:32 | 显示全部楼层 |阅读模式
帖子完整标题:情迷意乱 Yearning.1964.JAPANESE.1080p.BluRay.x264.DTS-FGT 8.42GB





◎译  名 情迷意乱 / Midareru / Yearning / 失衡 / 怀念
◎片  名 乱れる
◎年  代 1964
◎产  地 日本
◎类  别 剧情 / 爱情 / 家庭
◎语  言 日语
◎上映日期 1964-01-15(日本)
◎IMDb评分 8.2/10 from 892 users
◎片  长 98 分钟
◎导  演 成濑巳喜男 Mikio Naruse
◎编  剧 松山善三 Zenzo Matsuyama
◎主  演 高峰秀子 Hideko Takamine
      加山雄三 Y?z? Kayama
      草笛光子 Mitsuko Kusabue
      白川由美 Yumi Shirakawa
      三益爱子 Aiko Mimasu
      滨美枝 Mie Hama
      藤木悠 Y? Fujiki
      北村和夫 Kazuo Kitamura
      十朱久雄 Hisao Toake


◎标  签 日本 | 爱情 | 成瀬巳喜男 | 黑白 | 1964 | 1960s | 经典 | 剧情

◎简  介

  小镇里,一家超级市场的宣传车四处开动,正在播放着周年庆大减价的消息,森田屋的礼子(高峰秀子 饰)却很苦恼。这家家庭式百货商店是礼子婆家的店,结婚不久后,丈夫于战场战死,家里只剩下上了年纪的婆婆(三益爱子 饰)和年纪尚幼的小叔幸司(加山雄三 饰)。礼子一人扛下经营的重担,一晃十八年,而现在却遭到超级市场的大冲击。礼子的小姑们——久子(草笛光子 饰)和隆子(白川由美 饰)想要借森田屋这块地皮改造成超级市场,而改建计划里却没有礼子的位置。知晓实情后的礼子借再婚之名决定离开森田屋。
而另一方面,幸司终于按捺不住自己对礼子的爱意,倾诉了他的想法。礼子平静的生活被这告白扰乱,变得心绪不宁,正好借森田屋改建之事离开这个是非之地。在幸司送礼子回老家的路途上,面对离别,礼子流露出不舍,她对幸司其实也怀抱爱意只是碍于叔嫂的身份而无法表露。离老家越来越近,等待幸司和礼子的是爱意的互通还是更深的悲剧……
Video
ID : 1
Format : AVC
Format/Info : Advanced Video Codec
Format settings : CABAC / 4 Ref Frames
Format settings, CABAC : Yes
Format settings, ReFrames : 4 frames
Codec ID : V_MPEG4/ISO/AVC
Duration : 1 h 38 min
Bit rate : 11.5 Mb/s
Width : 1 920 pixels
Height : 788 pixels
Display aspect ratio : 2.40:1
Frame rate mode : Constant
Frame rate : 23.976 (24000/1001) FPS
Color space : YUV
Chroma subsampling : 4:2:0
Bit depth : 8 bits
Scan type : Progressive
Bits/(Pixel*Frame) : 0.317
Stream size : 7.89 GiB (94%)
Title : Yearning.1964.JAPANESE.1080p.BluRay.x264.DTS-FGT
Writing library : x264 core 148 r2795M aaa9aa8
Encoding settings : cabac=1 / ref=4 / deblock=1:-2:-2 / analyse=0x3:0x113 / me=umh / subme=9 / psy=1 / psy_rd=1.00:0.15 / mixed_ref=1 / me_range=16 / chroma_me=1 / trellis=2 / 8x8dct=1 / cqm=0 / deadzone=21,11 / fast_pskip=1 / chroma_qp_offset=-3 / threads=24 / lookahead_threads=3 / sliced_threads=0 / nr=0 / decimate=1 / interlaced=0 / bluray_compat=0 / constrained_intra=0 / bframes=3 / b_pyramid=2 / b_adapt=1 / b_bias=0 / direct=3 / weightb=1 / open_gop=0 / weightp=2 / keyint=250 / keyint_min=25 / scenecut=40 / intra_refresh=0 / rc_lookahead=50 / rc=2pass / mbtree=1 / bitrate=11500 / ratetol=1.0 / qcomp=0.60 / qpmin=0 / qpmax=69 / qpstep=4 / cplxblur=20.0 / qblur=0.5 / vbv_maxrate=31250 / vbv_bufsize=31250 / nal_hrd=none / filler=0 / ip_ratio=1.40 / aq=1:1.00
Language : Japanese
Default : Yes
Forced : No

Audio
ID : 2
Format : DTS
Format/Info : Digital Theater Systems
Codec ID : A_DTS
Duration : 1 h 38 min
Bit rate mode : Constant
Bit rate : 768 kb/s
Channel(s) : 1 channel
Channel layout : C
Sampling rate : 48.0 kHz
Frame rate : 93.750 FPS (512 SPF)
Bit depth : 24 bits
Compression mode : Lossy
Stream size : 541 MiB (6%)
Title : Yearning.1964.JAPANESE.1080p.BluRay.x264.DTS-FGT
Language : Japanese
Default : Yes
Forced : No

Text
ID : 3
Format : UTF-8
Codec ID : S_TEXT/UTF8
Codec ID/Info : UTF-8 Plain Text
Duration : 1 h 37 min
Bit rate : 33 b/s
Count of elements : 995
Stream size : 23.7 KiB (0%)
Language : English
Default : Yes
Forced : No

Menu
00:00:00.000 : en:Chapter 1
00:06:04.114 : en:Chapter 2
00:10:50.775 : en:Chapter 3
00:16:25.985 : en:Chapter 4
00:24:35.849 : en:Chapter 5
00:28:23.410 : en:Chapter 6
00:42:36.095 : en:Chapter 7
00:56:03.235 : en:Chapter 8
01:05:49.988 : en:Chapter 9
01:16:06.103 : en:Chapter 10
01:25:25.996 : en:Chapter 11
01:35:02.238 : en:Chapter 12

https://imagecurl.com/viewer.php?pold=72985124543145327229.pngplugin.php?id=dxksst_download:download&inf=YXR0YWNobWVudHxNVEk0TnprNGZESTNZVGc0WXpVNGZERTFOakkyTXpBM056VjhNSHd4T1RNd05EVSUzRHx0b3JyZW50fDQzNjI5fDR8ZWU5NTVmZjMxYzMwMGUxY2IwNTY2ZDYwMzlmNWY3MjQudG9ycmVudHwwfA==">ee955ff31c300e1cb0566d6039f5f724.torrent(42.61 KB)5 天前 上传
点击文件名下载附件
ee955ff31c300e1cb0566d6039f5f724.torrent

回复

使用道具 举报

小黑屋|百度云资源论坛 ( 闽ICP备16005822号-1 )

本网站所有资源来自网络,如无意中侵犯了您的权益,请发邮件至 [email protected],立即清除相关链接

GMT+8, 2019-10-16 01:48 , Processed in 0.055500 second(s), 16 queries .

Powered by Discuz! X3.2

© 2001-2013 Comsenz Inc.

快速回复 返回顶部 返回列表