百度云资源论坛

 找回密码
 立即注册
搜索
热搜: 百度云资源
开启左侧

追踪 Pursuit.1972.1080p.BluRay.x264.DTS-FGT 6.74GB

[复制链接]
hushuaiqi 发表于 2019-7-4 06:50:32 | 显示全部楼层 |阅读模式
帖子完整标题:追踪 Pursuit.1972.1080p.BluRay.x264.DTS-FGT 6.74GB





◎译  名 追踪
◎片  名 Pursuit
◎年  代 1972
◎产  地 美国
◎类  别 剧情 / 惊悚
◎语  言 英语
◎上映日期 1972-12-12
◎IMDb评分 5.9/10 from 217 users
◎片  长 73分钟
◎导  演 Michael Crichton
◎编  剧 Michael Crichton / Robert Dozier
◎主  演 Ben Gazzara
      E.G. Marshall
      William Windom


◎简  介

  暂无相关剧情介绍
Video
ID : 1
Format : AVC
Format/Info : Advanced Video Codec
Format settings : CABAC / 4 Ref Frames
Format settings, CABAC : Yes
Format settings, ReFrames : 4 frames
Codec ID : V_MPEG4/ISO/AVC
Duration : 1 h 14 min
Bit rate : 11.5 Mb/s
Width : 1 440 pixels
Height : 1 080 pixels
Display aspect ratio : 4:3
Frame rate mode : Constant
Frame rate : 23.976 (24000/1001) FPS
Color space : YUV
Chroma subsampling : 4:2:0
Bit depth : 8 bits
Scan type : Progressive
Bits/(Pixel*Frame) : 0.308
Stream size : 5.96 GiB (88%)
Title : Pursuit.1972.1080p.BluRay.x264.DTS-FGT
Writing library : x264 core 148 r2795M aaa9aa8
Encoding settings : cabac=1 / ref=4 / deblock=1:-2:-2 / analyse=0x3:0x113 / me=umh / subme=9 / psy=1 / psy_rd=1.00:0.15 / mixed_ref=1 / me_range=16 / chroma_me=1 / trellis=2 / 8x8dct=1 / cqm=0 / deadzone=21,11 / fast_pskip=1 / chroma_qp_offset=-3 / threads=24 / lookahead_threads=3 / sliced_threads=0 / nr=0 / decimate=1 / interlaced=0 / bluray_compat=0 / constrained_intra=0 / bframes=3 / b_pyramid=2 / b_adapt=1 / b_bias=0 / direct=3 / weightb=1 / open_gop=0 / weightp=2 / keyint=250 / keyint_min=25 / scenecut=40 / intra_refresh=0 / rc_lookahead=50 / rc=2pass / mbtree=1 / bitrate=11500 / ratetol=1.0 / qcomp=0.60 / qpmin=0 / qpmax=69 / qpstep=4 / cplxblur=20.0 / qblur=0.5 / vbv_maxrate=31250 / vbv_bufsize=31250 / nal_hrd=none / filler=0 / ip_ratio=1.40 / aq=1:1.00
Language : English
Default : Yes
Forced : No

Audio
ID : 2
Format : DTS
Format/Info : Digital Theater Systems
Codec ID : A_DTS
Duration : 1 h 14 min
Bit rate mode : Constant
Bit rate : 1 509 kb/s
Channel(s) : 2 channels
Channel layout : L R
Sampling rate : 48.0 kHz
Frame rate : 93.750 FPS (512 SPF)
Bit depth : 16 bits
Compression mode : Lossy
Stream size : 800 MiB (12%)
Title : Pursuit.1972.1080p.BluRay.x264.DTS-FGT
Language : English
Default : Yes
Forced : No

Text
ID : 3
Format : UTF-8
Codec ID : S_TEXT/UTF8
Codec ID/Info : UTF-8 Plain Text
Duration : 1 h 10 min
Bit rate : 56 b/s
Count of elements : 811
Stream size : 29.2 KiB (0%)
Language : English
Default : Yes
Forced : No

Menu
00:00:00.000 : en:Chapter 00
00:10:11.235 : en:Chapter 01
00:18:08.545 : en:Chapter 02
00:23:25.821 : en:Chapter 03
00:35:55.319 : en:Chapter 04
00:44:28.874 : en:Chapter 05
00:55:37.042 : en:Chapter 06
01:03:56.374 : en:Chapter 07

https://imagecurl.com/viewer.php?pold=88508881275102793581.pngplugin.php?id=dxksst_download:download&inf=YXR0YWNobWVudHxNVEk0TnprM2ZEWTRNV1UyWldWamZERTFOakkyTXpBM056aDhNSHd4T1RNd05EUSUzRHx0b3JyZW50fDM1MDI5fDN8ZDJjOWYzODgyMGRhYTg2OTdjZmFlMmE1MjIxYjQ2YmIudG9ycmVudHwwfA==">d2c9f38820daa8697cfae2a5221b46bb.torrent(34.21 KB)5 天前 上传
点击文件名下载附件
d2c9f38820daa8697cfae2a5221b46bb.torrent

回复

使用道具 举报

小黑屋|百度云资源论坛 ( 闽ICP备16005822号-1 )

本网站所有资源来自网络,如无意中侵犯了您的权益,请发邮件至 [email protected]look.com,立即清除相关链接

GMT+8, 2019-10-16 01:42 , Processed in 0.067188 second(s), 16 queries .

Powered by Discuz! X3.2

© 2001-2013 Comsenz Inc.

快速回复 返回顶部 返回列表