百度云资源论坛

 找回密码
 立即注册
搜索
热搜: 百度云资源
开启左侧

网走番外地 Abashiri.Prison.1965.JAPANESE.1080p.BluRay.x264.DTS-FGT 8.27GB

[复制链接]
lz85760082 发表于 2019-7-4 06:50:32 | 显示全部楼层 |阅读模式
帖子完整标题:网走番外地 Abashiri.Prison.1965.JAPANESE.1080p.BluRay.x264.DTS-FGT 8.27GB





◎译  名 网走番外地 / Abashiri Bangaichi / Abashiri Prison / Prison Walls of Abashiri
◎片  名 網走番外地
◎年  代 1965
◎产  地 日本
◎类  别 剧情 / 犯罪
◎语  言 日语
◎上映日期 1965-04-18(日本)
◎IMDb评分 7.2/10 from 165 users
◎片  长 92分钟
◎导  演 石井辉男 Teruo Ishii
◎编  剧 石井辉男 Teruo Ishii / 伊藤一
◎主  演 高仓健
      丹波哲郎


◎标  签 高仓健 | 日本 | 石井辉男 | 日本电影 | 网走番外地 | 犯罪 | 石井輝男 | 监狱

◎简  介

  天寒地冻的北部城市网走,是一个人烟罕至之地,也是许多囚犯服刑的地方。年青的黑帮成员橘真一(高倉健 饰)因砍伤敌对帮派老大而被遣送于此。生长在南国的真一并不适应网走的严寒,此外同住一个牢房的强盗权田权三(南原宏治 饰)及以老大自居的依田(安部徹 饰)还经常找他的麻烦。真一忍气吞声,指望尽早出狱回到母亲(風見章子 饰)身边。他出生在一个破败的家庭,因反抗继父国造(沢彰謙 饰)而逃离家庭。从妹妹的信中得知,他的母亲已身染重病,不久于人世。真一期盼假释不得,刚好权田和依田谋划越狱,于是他决定和这群亡命之徒铤而走险……
本片根据伊藤一的原作《颜役》改编。
Video
ID : 1
Format : AVC
Format/Info : Advanced Video Codec
Format settings : CABAC / 4 Ref Frames
Format settings, CABAC : Yes
Format settings, ReFrames : 4 frames
Codec ID : V_MPEG4/ISO/AVC
Duration : 1 h 31 min
Bit rate : 11.5 Mb/s
Width : 1 920 pixels
Height : 816 pixels
Display aspect ratio : 2.35:1
Frame rate mode : Constant
Frame rate : 23.976 (24000/1001) FPS
Color space : YUV
Chroma subsampling : 4:2:0
Bit depth : 8 bits
Scan type : Progressive
Bits/(Pixel*Frame) : 0.306
Stream size : 7.31 GiB (88%)
Title : Abashiri.Prison.1965.JAPANESE.1080p.BluRay.x264.DTS-FGT
Writing library : x264 core 148 r2795M aaa9aa8
Encoding settings : cabac=1 / ref=4 / deblock=1:-2:-2 / analyse=0x3:0x113 / me=umh / subme=9 / psy=1 / psy_rd=1.00:0.15 / mixed_ref=1 / me_range=16 / chroma_me=1 / trellis=2 / 8x8dct=1 / cqm=0 / deadzone=21,11 / fast_pskip=1 / chroma_qp_offset=-3 / threads=24 / lookahead_threads=3 / sliced_threads=0 / nr=0 / decimate=1 / interlaced=0 / bluray_compat=0 / constrained_intra=0 / bframes=3 / b_pyramid=2 / b_adapt=1 / b_bias=0 / direct=3 / weightb=1 / open_gop=0 / weightp=2 / keyint=250 / keyint_min=25 / scenecut=40 / intra_refresh=0 / rc_lookahead=50 / rc=2pass / mbtree=1 / bitrate=11500 / ratetol=1.0 / qcomp=0.60 / qpmin=0 / qpmax=69 / qpstep=4 / cplxblur=20.0 / qblur=0.5 / vbv_maxrate=31250 / vbv_bufsize=31250 / nal_hrd=none / filler=0 / ip_ratio=1.40 / aq=1:1.00
Language : Japanese
Default : Yes
Forced : No

Audio
ID : 2
Format : DTS
Format/Info : Digital Theater Systems
Codec ID : A_DTS
Duration : 1 h 31 min
Bit rate mode : Constant
Bit rate : 1 509 kb/s
Channel(s) : 2 channels
Channel layout : L R
Sampling rate : 48.0 kHz
Frame rate : 93.750 FPS (512 SPF)
Bit depth : 16 bits
Compression mode : Lossy
Stream size : 982 MiB (12%)
Title : Abashiri.Prison.1965.JAPANESE.1080p.BluRay.x264.DTS-FGT
Language : Japanese
Default : Yes
Forced : No

Text
ID : 3
Format : UTF-8
Codec ID : S_TEXT/UTF8
Codec ID/Info : UTF-8 Plain Text
Duration : 1 h 30 min
Bit rate : 46 b/s
Count of elements : 1008
Stream size : 31.2 KiB (0%)
Language : English
Default : Yes
Forced : No

Menu
00:00:00.000 : en:Chapter 1
00:01:19.870 : en:Chapter 2
00:13:56.460 : en:Chapter 3
00:20:54.250 : en:Chapter 4
00:34:48.043 : en:Chapter 5
00:46:30.579 : en:Chapter 6
00:53:48.306 : en:Chapter 7
00:59:07.710 : en:Chapter 8
01:05:41.728 : en:Chapter 9
01:10:15.211 : en:Chapter 10
01:17:53.210 : en:Chapter 11
01:22:55.136 : en:Chapter 12

https://imagecurl.com/viewer.php?pold=86112082619065538512.pngplugin.php?id=dxksst_download:download&inf=YXR0YWNobWVudHxNVEk0TnprMmZHSTFNemxsWVRSbWZERTFOakkyTXpBM09ERjhNSHd4T1RNd05ETSUzRHx0b3JyZW50fDQyOTAzfDE1fDVlMWUwNzQyZDhjZDY5MDVlNThjZTZkYjI2Njg3MWE4LnRvcnJlbnR8MHw=">5e1e0742d8cd6905e58ce6db266871a8.torrent(41.9 KB)5 天前 上传
点击文件名下载附件
5e1e0742d8cd6905e58ce6db266871a8.torrent

回复

使用道具 举报

小黑屋|百度云资源论坛 ( 闽ICP备16005822号-1 )

本网站所有资源来自网络,如无意中侵犯了您的权益,请发邮件至 [email protected],立即清除相关链接

GMT+8, 2019-10-20 23:29 , Processed in 0.048777 second(s), 15 queries .

Powered by Discuz! X3.4

© 2001-2017 Comsenz Inc.

快速回复 返回顶部 返回列表