百度云资源论坛

 找回密码
 立即注册
搜索
热搜: 百度云资源
开启左侧

安娜·博林/安娜.博林 Anna.Boleyn.1920.720p.BluRay.x264-BiPOLAR 5.47GB

[复制链接]
s1527942468 发表于 2019-7-12 00:58:44 | 显示全部楼层 |阅读模式
帖子完整标题:安娜·博林/安娜.博林 Anna.Boleyn.1920.720p.BluRay.x264-BiPOLAR 5.47GB





◎译  名 安娜·博林 / 安娜.博林
◎片  名 Anna Boleyn
◎年  代 1920
◎产  地 德国
◎类  别 剧情
◎语  言 无对白
◎上映日期 1920-12-03
◎IMDb评分 6.8/10 from 518 users
◎片  长 100 分钟
◎导  演 恩斯特·刘别谦 Ernst Lubitsch
◎编  剧 Norbert Falk / Hanns Kr?ly
◎主  演 Henny Porten
      爱米尔·强宁斯 Emil Jannings
      Paul Hartmann
      Ludwig Hartau
      Aud Egede Nissen
      Hedwig Pauly-Winterstein
      Hilde Müller
      Maria Reisenhofer
      Ferdinand von Alten
      Adolf Klein
      Paul Biensfeldt
      Wilhelm Diegelmann
      Friedrich Kühne
      Karl Platen
      Erling Hanson


◎标  签 德国 | 默片 | 刘别谦 | 恩斯特·刘别谦 | 1920s | Ernst_Lubitsch | ErnstLubitsch | 德国电影

◎简  介

  亨利八世与安娜.博林的爱恨情仇...
Video
ID : 1
Format : AVC
Format/Info : Advanced Video Codec
Format settings : CABAC / 5 Ref Frames
Format settings, CABAC : Yes
Format settings, ReFrames : 5 frames
Codec ID : V_MPEG4/ISO/AVC
Duration : 2 h 3 min
Bit rate : 5 677 kb/s
Width : 960 pixels
Height : 720 pixels
Display aspect ratio : 4:3
Frame rate mode : Constant
Frame rate : 19.181 FPS
Color space : YUV
Chroma subsampling : 4:2:0
Bit depth : 8 bits
Scan type : Progressive
Bits/(Pixel*Frame) : 0.428
Stream size : 4.91 GiB (90%)
Writing library : x264 core 157 r2969 d4099dd
Encoding settings : cabac=1 / ref=5 / deblock=1:-3:-3 / analyse=0x3:0x133 / me=umh / subme=9 / psy=1 / psy_rd=1.00:0.00 / mixed_ref=1 / me_range=16 / chroma_me=1 / trellis=2 / 8x8dct=1 / cqm=0 / deadzone=21,11 / fast_pskip=0 / chroma_qp_offset=-2 / threads=18 / lookahead_threads=1 / sliced_threads=0 / nr=0 / decimate=1 / interlaced=0 / bluray_compat=0 / constrained_intra=0 / bframes=3 / b_pyramid=2 / b_adapt=1 / b_bias=0 / direct=3 / weightb=1 / open_gop=0 / weightp=2 / keyint=192 / keyint_min=19 / scenecut=40 / intra_refresh=0 / rc_lookahead=50 / rc=2pass / mbtree=1 / bitrate=5677 / ratetol=1.0 / qcomp=0.60 / qpmin=0 / qpmax=69 / qpstep=4 / cplxblur=20.0 / qblur=0.5 / ip_ratio=1.40 / aq=1:1.00
Language : English
Default : Yes
Forced : No

Audio
ID : 2
Format : FLAC
Format/Info : Free Lossless Audio Codec
Codec ID : A_FLAC
Duration : 2 h 3 min
Bit rate mode : Variable
Bit rate : 635 kb/s
Channel(s) : 2 channels
Channel layout : L R
Sampling rate : 48.0 kHz
Frame rate : 11.719 FPS (4096 SPF)
Bit depth : 24 bits
Compression mode : Lossless
Stream size : 563 MiB (10%)
Writing library : libFLAC 1.2.1 (UTC 2007-09-17)
Default : Yes
Forced : No

Text
ID : 3
Format : UTF-8
Codec ID : S_TEXT/UTF8
Codec ID/Info : UTF-8 Plain Text
Duration : 2 h 1 min
Bit rate : 9 b/s
Count of elements : 203
Stream size : 8.34 KiB (0%)
Title : English
Language : English
Default : Yes
Forced : Yes

Menu
00:00:00.000 : en:00:00:00.000
00:00:12.012 : en:00:00:12.012
00:09:12.969 : en:00:09:12.969
00:18:34.113 : en:00:18:34.113
00:24:26.173 : en:00:24:26.173
00:30:14.062 : en:00:30:14.062
00:38:29.641 : en:00:38:29.641
00:44:11.607 : en:00:44:11.607
00:51:47.604 : en:00:51:47.604
01:00:27.332 : en:01:00:27.332
01:13:11.137 : en:01:13:11.137
01:24:44.079 : en:01:24:44.079
01:29:24.150 : en:01:29:24.150
01:43:38.671 : en:01:43:38.671
01:52:31.578 : en:01:52:31.578

plugin.php?id=dxksst_download:download&inf=YXR0YWNobWVudHxNVEk0TnpVd2ZETmhOVGt3WXpCamZERTFOakk0T0RrME1UQjhNSHd4T1RJNU9USSUzRHx0b3JyZW50fDI4NjMzfDN8ZDk2NmI4Y2MxMzNjM2I3NzJkYWFlZDE2MGJhNTUxMTcudG9ycmVudHwwfA==">d966b8cc133c3b772daaed160ba55117.torrent(27.96 KB)2019-7-3 06:50 上传
点击文件名下载附件
d966b8cc133c3b772daaed160ba55117.torrent

回复

使用道具 举报

小黑屋|百度云资源论坛 ( 闽ICP备16005822号-1 )

本网站所有资源来自网络,如无意中侵犯了您的权益,请发邮件至 [email protected],立即清除相关链接

GMT+8, 2019-10-18 10:37 , Processed in 0.062164 second(s), 16 queries .

Powered by Discuz! X3.2

© 2001-2013 Comsenz Inc.

快速回复 返回顶部 返回列表