百度云资源论坛

 找回密码
 立即注册
搜索
热搜: 百度云资源
开启左侧

卡普里革命 Capri-Revolution.2018.720p.BluRay.x264-BiPOLAR 5.47GB

[复制链接]
caomin0418 发表于 2019-7-12 00:58:44 | 显示全部楼层 |阅读模式
帖子完整标题:卡普里革命 Capri-Revolution.2018.720p.BluRay.x264-BiPOLAR 5.47GB





◎译  名 卡普里革命 / Capri-Revolution
◎片  名 Capri - Batterie
◎年  代 2018
◎产  地 意大利 / 法国
◎类  别 剧情 / 历史
◎语  言 意大利语 / 法语
◎上映日期 2018-09-06(威尼斯电影节) / 2018-12-13(意大利)
◎IMDb评分 6.6/10 from 303 users
◎片  长 122分钟
◎导  演 马里奥·马尔托内 Mario Martone
◎编  剧 马里奥·马尔托内 Mario Martone / Ippolita Di Majo
◎主  演 Marianna Fontana
      Reinout Scholten van Aschat
      安东尼奥·福莱托 Antonio Folletto
      珍娜·蒂亚姆 Jenna Thiam
      Maximilian Dirr
      Lola Klamroth
      Eduardo Scarpetta
      里纳特·希什马塔林 Rinat Khismatouline


◎标  签 意大利 | 法国 | 2018 | 剧情 | 意大利电影 | Venice2018 | 电影 | 马尔托内

◎简  介

  With Italy about to go to war in 1914, this's the story of the encounter between a goatherd called Lucia, the commune of young Northern Europeans led by Seybu and the town's young youlady.cc doctor on the unique island of Capri.

◎获奖情况

  第75届威尼斯电影节(2018)
  主竞赛单元 金狮奖 (提名) 马里奥·马尔托内

  第64届意大利大卫奖(2019)
  最佳导演(提名) 马里奥·马尔托内
  最佳女主角(提名) 玛丽安娜·芳塔娜
  最佳女配角(提名) 唐娜提拉·芬诺恰罗
  最佳摄影(提名) 米歇尔·达塔纳西奥
  最佳音乐
  最佳原创歌曲(提名)
  最佳美术设计(提名)
  最佳服装设计
  最佳化妆(提名)
  最佳发型设计(提名)
  最佳剪辑(提名)
  最佳音效(提名)
  最佳视觉效果(提名)


Video
ID : 1
Format : AVC
Format/Info : Advanced Video Codec
Format settings : CABAC / 5 Ref Frames
Format settings, CABAC : Yes
Format settings, ReFrames : 5 frames
Codec ID : V_MPEG4/ISO/AVC
Duration : 2 h 2 min
Bit rate : 4 880 kb/s
Width : 1 280 pixels
Height : 536 pixels
Display aspect ratio : 2.40:1
Frame rate mode : Constant
Frame rate : 23.976 (24000/1001) FPS
Color space : YUV
Chroma subsampling : 4:2:0
Bit depth : 8 bits
Scan type : Progressive
Bits/(Pixel*Frame) : 0.297
Stream size : 4.17 GiB (76%)
Writing library : x264 core 157 r2969 d4099dd
Encoding settings : cabac=1 / ref=5 / deblock=1:-3:-3 / analyse=0x3:0x133 / me=umh / subme=9 / psy=1 / psy_rd=1.00:0.00 / mixed_ref=1 / me_range=16 / chroma_me=1 / trellis=2 / 8x8dct=1 / cqm=0 / deadzone=21,11 / fast_pskip=0 / chroma_qp_offset=-2 / threads=17 / lookahead_threads=1 / sliced_threads=0 / nr=0 / decimate=1 / interlaced=0 / bluray_compat=0 / constrained_intra=0 / bframes=3 / b_pyramid=2 / b_adapt=1 / b_bias=0 / direct=3 / weightb=1 / open_gop=0 / weightp=2 / keyint=240 / keyint_min=24 / scenecut=40 / intra_refresh=0 / rc_lookahead=50 / rc=2pass / mbtree=1 / bitrate=4880 / ratetol=1.0 / qcomp=0.60 / qpmin=0 / qpmax=69 / qpstep=4 / cplxblur=20.0 / qblur=0.5 / ip_ratio=1.40 / aq=1:1.00
Language : English
Default : Yes
Forced : No

Audio
ID : 2
Format : DTS
Format/Info : Digital Theater Systems
Codec ID : A_DTS
Duration : 2 h 2 min
Bit rate mode : Constant
Bit rate : 1 509 kb/s
Channel(s) : 6 channels
Channel layout : C L R Ls Rs LFE
Sampling rate : 48.0 kHz
Frame rate : 93.750 FPS (512 SPF)
Bit depth : 24 bits
Compression mode : Lossy
Stream size : 1.29 GiB (24%)
Language : Italian
Default : Yes
Forced : No

Text
ID : 3
Format : UTF-8
Codec ID : S_TEXT/UTF8
Codec ID/Info : UTF-8 Plain Text
Duration : 1 h 51 min
Bit rate : 17 b/s
Count of elements : 451
Stream size : 14.6 KiB (0%)
Title : English
Language : English
Default : Yes
Forced : Yes

Menu
00:00:00.000 : en:00:00:00.000
00:07:57.227 : en:00:07:57.227
00:21:52.895 : en:00:21:52.895
00:24:39.019 : en:00:24:39.019
00:35:03.893 : en:00:35:03.893
00:49:39.560 : en:00:49:39.560
00:58:37.806 : en:00:58:37.806
01:13:51.969 : en:01:13:51.969
01:22:14.805 : en:01:22:14.805
01:27:09.266 : en:01:27:09.266
01:39:21.330 : en:01:39:21.330
01:51:06.326 : en:01:51:06.326

plugin.php?id=dxksst_download:download&inf=YXR0YWNobWVudHxNVEk0TnpRNWZEVTBOR00zTjJGaGZERTFOakk0T0RrME1USjhNSHd4T1RJNU9URSUzRHx0b3JyZW50fDI4ODU4fDExfDk3NmI3YTBkOTYyNWQwMmUwOTE5MThkMzU2NmM5M2Y3LnRvcnJlbnR8MHw=">976b7a0d9625d02e091918d3566c93f7.torrent(28.18 KB)2019-7-3 06:50 上传
点击文件名下载附件
976b7a0d9625d02e091918d3566c93f7.torrent

回复

使用道具 举报

小黑屋|百度云资源论坛 ( 闽ICP备16005822号-1 )

本网站所有资源来自网络,如无意中侵犯了您的权益,请发邮件至 [email protected],立即清除相关链接

GMT+8, 2019-10-18 10:33 , Processed in 0.073466 second(s), 16 queries .

Powered by Discuz! X3.2

© 2001-2013 Comsenz Inc.

快速回复 返回顶部 返回列表