百度云资源论坛

 找回密码
 立即注册
搜索
热搜: 百度云资源
开启左侧

苏姆伦王妃 Sumurun.1920.720p.BluRay.x264-BiPOLAR 4.37GB

[复制链接]
jmsltz 发表于 4 天前 | 显示全部楼层 |阅读模式
百度云
帖子完整标题:苏姆伦王妃 Sumurun.1920.720p.BluRay.x264-BiPOLAR 4.37GB

百度云 百度云
百度云 百度云
百度云 百度云
百度云 百度云
百度云 百度云◎译  名 苏姆伦王妃 / One Arabian Night
百度云 百度云◎片  名 Sumurun
百度云 百度云◎年  代 1920
百度云 百度云◎产  地 德国
百度云 百度云◎类  别 剧情 / 爱情 / 冒险
百度云 百度云◎语  言 德语
百度云 百度云◎上映日期 1920-09-01
百度云 百度云◎片  长 Hong Kong: 115 分钟
百度云 百度云◎导  演 Ernst Lubitsch
百度云 百度云◎编  剧 Hanns Kr?ly / Ernst Lubitsch
百度云 百度云◎主  演 Pola Negri
百度云 百度云      Paul Wegener
百度云 百度云      Harry Liedtke
百度云 百度云      Ernst Lubitsch
百度云 百度云
百度云 百度云
百度云 百度云◎标  签 德国 | 默片 | 刘别谦 | 恩斯特·刘别谦 | 1920s | 德国电影 | ErnstLubitsch | 1920
百度云 百度云
百度云 百度云◎简  介
百度云 百度云
百度云 百度云  暂无相关剧情介绍
百度云 百度云
Video
百度云 百度云ID : 1
百度云 百度云Format : AVC
百度云 百度云Format/Info : Advanced Video Codec
百度云 百度云Format settings : CABAC / 5 Ref Frames
百度云 百度云Format settings, CABAC : Yes
百度云 百度云Format settings, ReFrames : 5 frames
百度云 百度云Codec ID : V_MPEG4/ISO/AVC
百度云 百度云Duration : 1 h 43 min
百度云 百度云Bit rate : 4 839 kb/s
百度云 百度云Width : 960 pixels
百度云 百度云Height : 720 pixels
百度云 百度云Display aspect ratio : 4:3
百度云 百度云Frame rate mode : Constant
百度云 百度云Frame rate : 19.980 (20000/1001) FPS
百度云 百度云Color space : YUV
百度云 百度云Chroma subsampling : 4:2:0
百度云 百度云Bit depth : 8 bits
百度云 百度云Scan type : Progressive
百度云 百度云Bits/(Pixel*Frame) : 0.350
百度云 百度云Stream size : 3.51 GiB (80%)
百度云 百度云Writing library : x264 core 157 r2969 d4099dd
百度云 百度云Encoding settings : cabac=1 / ref=5 / deblock=1:-3:-3 / analyse=0x3:0x133 / me=umh / subme=9 / psy=1 / psy_rd=1.00:0.00 / mixed_ref=1 / me_range=16 / chroma_me=1 / trellis=2 / 8x8dct=1 / cqm=0 / deadzone=21,11 / fast_pskip=0 / chroma_qp_offset=-2 / threads=18 / lookahead_threads=1 / sliced_threads=0 / nr=0 / decimate=1 / interlaced=0 / bluray_compat=0 / constrained_intra=0 / bframes=3 / b_pyramid=2 / b_adapt=1 / b_bias=0 / direct=3 / weightb=1 / open_gop=0 / weightp=2 / keyint=200 / keyint_min=20 / scenecut=40 / intra_refresh=0 / rc_lookahead=50 / rc=2pass / mbtree=1 / bitrate=4839 / ratetol=1.0 / qcomp=0.60 / qpmin=0 / qpmax=69 / qpstep=4 / cplxblur=20.0 / qblur=0.5 / ip_ratio=1.40 / aq=1:1.00
百度云 百度云Language : English
百度云 百度云Default : Yes
百度云 百度云Forced : No
百度云 百度云
百度云 百度云Audio
百度云 百度云ID : 2
百度云 百度云Format : FLAC
百度云 百度云Format/Info : Free Lossless Audio Codec
百度云 百度云Codec ID : A_FLAC
百度云 百度云Duration : 1 h 43 min
百度云 百度云Bit rate mode : Variable
百度云 百度云Bit rate : 1 180 kb/s
百度云 百度云Channel(s) : 2 channels
百度云 百度云Channel layout : L R
百度云 百度云Sampling rate : 48.0 kHz
百度云 百度云Frame rate : 11.719 FPS (4096 SPF)
百度云 百度云Bit depth : 24 bits
百度云 百度云Compression mode : Lossless
百度云 百度云Stream size : 877 MiB (20%)
百度云 百度云Writing library : libFLAC 1.2.1 (UTC 2007-09-17)
百度云 百度云Default : Yes
百度云 百度云Forced : No
百度云 百度云
百度云 百度云Text
百度云 百度云ID : 3
百度云 百度云Format : UTF-8
百度云 百度云Codec ID : S_TEXT/UTF8
百度云 百度云Codec ID/Info : UTF-8 Plain Text
百度云 百度云Duration : 1 h 36 min
百度云 百度云Bit rate : 3 b/s
百度云 百度云Count of elements : 67
百度云 百度云Stream size : 2.43 KiB (0%)
百度云 百度云Title : English
百度云 百度云Language : English
百度云 百度云Default : Yes
百度云 百度云Forced : Yes
百度云 百度云
百度云 百度云Menu
百度云 百度云00:00:00.000 : en:00:00:00.000
百度云 百度云00:00:12.012 : en:00:00:12.012
百度云 百度云00:01:34.511 : en:00:01:34.511
百度云 百度云00:11:25.476 : en:00:11:25.476
百度云 百度云00:16:32.450 : en:00:16:32.450
百度云 百度云00:31:26.468 : en:00:31:26.468
百度云 百度云00:42:39.849 : en:00:42:39.849
百度云 百度云01:03:15.417 : en:01:03:15.417
百度云 百度云01:16:48.562 : en:01:16:48.562
百度云 百度云01:25:37.341 : en:01:25:37.341
百度云 百度云01:31:59.931 : en:01:31:59.931

百度云 百度云plugin.php?id=dxksst_download:download&inf=YXR0YWNobWVudHxNVEk0TnpRM2ZEVTBOR1EwTXpka2ZERTFOakk0T0RrME1UaDhNSHd4T1RJNU9EayUzRHx0b3JyZW50fDQ1NDAxfDF8ZmIyNjA5YzExZTJlZmUyZWU4NmIwZDVmNTNiMDFjNjEudG9ycmVudHwwfA==">fb2609c11e2efe2ee86b0d5f53b01c61.torrent(44.34 KB)2019-7-3 06:50 上传
百度云 百度云点击文件名下载附件
百度云 百度云fb2609c11e2efe2ee86b0d5f53b01c61.torrent
回复

使用道具 举报

小黑屋|百度云资源论坛 ( 闽ICP备16005822号-1 )

本网站所有资源来自网络,如无意中侵犯了您的权益,请发邮件至 2571535523@qq.com,立即清除相关链接

GMT+8, 2019-7-16 17:09 , Processed in 0.084475 second(s), 16 queries .

Powered by Discuz! X3.2

© 2001-2013 Comsenz Inc.

快速回复 返回顶部 返回列表