百度云资源论坛

 找回密码
 立即注册
搜索
热搜: 百度云资源
开启左侧

卧底兄弟 Undercover.Brother.2002.720p.BluRay.x264-GUACAMOLE 3.27GB

[复制链接]
321932lrj 发表于 2019-7-12 00:58:44 | 显示全部楼层 |阅读模式
帖子完整标题:卧底兄弟 Undercover.Brother.2002.720p.BluRay.x264-GUACAMOLE 3.27GB





◎译  名 卧底兄弟
◎片  名 Undercover Brother
◎年  代 2002
◎产  地 美国
◎类  别 喜剧 / 动作
◎语  言 英语
◎上映日期 2002-05-31
◎IMDb评分 5.9/10 from 32001 users
◎片  长 86 分钟
◎导  演 马尔科姆·李
◎编  剧 John Ridley / Michael McCullers
◎主  演 艾迪·格里芬
      克里斯·卡坦
      丹尼斯·理查兹


◎标  签 喜剧 | 美国 | 2002 | 美国电影 | 黑人 | 搞笑 | HBO | 电影

◎简  介

  黑人喜剧明星艾迪格里芬在影片中饰演一位留着非洲发型,一副七十年代流行装扮的黑人英雄,绰号“Undercover Brother”的间谍。他被委派去打入一个邪恶的反政府组织的内部,以便在适当的时机瓦解他们,和他合作的是一位性感的新来女同事。他们在潜入这个组织之后,积极寻找组织的犯罪证据,但不久却被人发现,对方派来了另外一位性感女人来对付他……
Video
ID : 1
Format : AVC
Format/Info : Advanced Video Codec
Format settings : CABAC / 5 Ref Frames
Format settings, CABAC : Yes
Format settings, ReFrames : 5 frames
Codec ID : V_MPEG4/ISO/AVC
Duration : 1 h 26 min
Bit rate : 4 675 kb/s
Width : 1 280 pixels
Height : 696 pixels
Display aspect ratio : 1.85:1
Frame rate mode : Constant
Frame rate : 23.976 (24000/1001) FPS
Color space : YUV
Chroma subsampling : 4:2:0
Bit depth : 8 bits
Scan type : Progressive
Bits/(Pixel*Frame) : 0.219
Stream size : 2.81 GiB (86%)
Writing library : x264 core 157 r2969 d4099dd
Encoding settings : cabac=1 / ref=5 / deblock=1:0:0 / analyse=0x3:0x113 / me=umh / subme=8 / psy=1 / psy_rd=1.00:0.00 / mixed_ref=1 / me_range=16 / chroma_me=1 / trellis=2 / 8x8dct=1 / cqm=0 / deadzone=21,11 / fast_pskip=0 / chroma_qp_offset=-2 / threads=22 / lookahead_threads=3 / sliced_threads=0 / nr=0 / decimate=1 / interlaced=0 / bluray_compat=0 / constrained_intra=0 / bframes=3 / b_pyramid=2 / b_adapt=1 / b_bias=0 / direct=1 / weightb=1 / open_gop=0 / weightp=2 / keyint=250 / keyint_min=23 / scenecut=40 / intra_refresh=0 / rc_lookahead=50 / rc=2pass / mbtree=1 / bitrate=4675 / ratetol=1.0 / qcomp=0.60 / qpmin=0 / qpmax=69 / qpstep=4 / cplxblur=20.0 / qblur=0.5 / ip_ratio=1.40 / aq=1:1.00
Default : Yes
Forced : No

Audio
ID : 2
Format : DTS
Format/Info : Digital Theater Systems
Codec ID : A_DTS
Duration : 1 h 26 min
Bit rate mode : Constant
Bit rate : 768 kb/s
Channel(s) : 6 channels
Channel layout : C L R Ls Rs LFE
Sampling rate : 48.0 kHz
Frame rate : 93.750 FPS (512 SPF)
Bit depth : 24 bits
Compression mode : Lossy
Stream size : 473 MiB (14%)
Language : English
Default : Yes
Forced : Yes

Menu
00:00:00.000 : en:00:00:00.000
00:09:31.946 : en:00:09:31.946
00:22:46.198 : en:00:22:46.198
00:28:07.102 : en:00:28:07.102
00:33:31.885 : en:00:33:31.885
00:42:30.715 : en:00:42:30.715
00:53:57.609 : en:00:53:57.609
01:00:04.100 : en:01:00:04.100
01:08:24.309 : en:01:08:24.309
01:16:27.458 : en:01:16:27.458

plugin.php?id=dxksst_download:download&inf=YXR0YWNobWVudHxNVEk0TmprNWZHVTROVGxsT0dGbGZERTFOakk0T0RrME1qSjhNSHd4T1RJNU1qZyUzRHx0b3JyZW50fDM0MTExfDh8M2E1NmM3ZWYxNDZlMjgyYjYwNDEzNzc3ZWFiMjk4NmMudG9ycmVudHwwfA==">3a56c7ef146e282b60413777eab2986c.torrent(33.31 KB)2019-7-2 09:37 上传
点击文件名下载附件
3a56c7ef146e282b60413777eab2986c.torrent

回复

使用道具 举报

小黑屋|百度云资源论坛 ( 闽ICP备16005822号-1 )

本网站所有资源来自网络,如无意中侵犯了您的权益,请发邮件至 [email protected],立即清除相关链接

GMT+8, 2019-10-20 23:22 , Processed in 0.052764 second(s), 15 queries .

Powered by Discuz! X3.4

© 2001-2017 Comsenz Inc.

快速回复 返回顶部 返回列表