百度云资源论坛

 找回密码
 立即注册
搜索
热搜: 百度云资源
开启左侧

蝴蝶春梦 The.Collector.1965.INTERNAL.720p.BluRay.X264-AMIABLE 10.51GB

[复制链接]
suncorpse 发表于 2019-7-12 00:58:44 | 显示全部楼层 |阅读模式
帖子完整标题:蝴蝶春梦 The.Collector.1965.INTERNAL.720p.BluRay.X264-AMIABLE 10.51GB





◎译  名 蝴蝶春梦 / The Butterfly Collector / 收藏家
◎片  名 The Collector
◎年  代 1965
◎产  地 英国 / 美国
◎类  别 剧情 / 惊悚
◎语  言 英语
◎上映日期 1965-06-17
◎IMDb评分 7.6/10 from 8618 users
◎片  长 119 分钟
◎导  演 William Wyler
◎编  剧 Stanley Mann / John Kohn
◎主  演 Terence Stamp
      Samantha Eggar
      Mona Washbourne
      Maurice Dallimore


◎标  签 美国 | 惊悚 | 英国 | 威廉·惠勒 | 1965 | WilliamWyler | 1960s | 犯罪

◎简  介

  爱好收集蝴蝶标本的弗莱迪意外中得7万多英镑的足球彩票,他买下伦敦郊区的一幢旧屋,然后绑架了他心中倾慕已久的艺术学院学生米兰达,将她囚禁在地下室中。弗莱迪希望用自己的所作所为感动米兰达,继而令她爱上自己,但他不知道自己的变态行为只会让对方感到恐怖。米兰达不堪折磨,病死在地下室中。而最后......
该片改编自英国当今最红的小说家之一John Fowles(约翰·傅敖斯)的处女作。他的作品很多,其中,长篇小说有六部,另外有一部中、短篇故事集。长篇小说中已有三部拍成电影:The Collector《蝴蝶春梦》,The Magus《占星家》和The French Lieutenant's Woman《法国中尉的女人》。
该片导演William Wyler 威廉·惠勒被称作“导演中的导演”。曾经执导《罗马假日》,史诗巨片《宾虚》(Ben-Hur),《忠勇之家》(Mrs.Miniver),等,共获得12次奥斯卡最佳导演提名,共有14位演员因出演他的影片而获得奥斯卡最佳演员奖。

◎获奖情况

  第38届奥斯卡金像奖(1966)
  最佳导演(提名) 威廉·惠勒
  最佳女主角(提名) 萨曼莎·艾加
  最佳改编剧本(提名) 斯坦利·曼 / 约翰·科恩

  第18届戛纳电影节(1965)
  主竞赛单元 金棕榈奖(提名) 威廉·惠勒
  主竞赛单元 最佳女演员 萨曼莎·艾加
  主竞赛单元 最佳男演员 特伦斯·斯坦普


Video
ID : 1
Format : AVC
Format/Info : Advanced Video Codec
Format settings : CABAC / 9 Ref Frames
Format settings, CABAC : Yes
Format settings, ReFrames : 9 frames
Codec ID : V_MPEG4/ISO/AVC
Duration : 1 h 59 min
Bit rate : 11.9 Mb/s
Width : 1 280 pixels
Height : 694 pixels
Display aspect ratio : 1.85:1
Frame rate mode : Constant
Frame rate : 23.976 (24000/1001) FPS
Color space : YUV
Chroma subsampling : 4:2:0
Bit depth : 8 bits
Scan type : Progressive
Bits/(Pixel*Frame) : 0.559
Stream size : 9.92 GiB (94%)
Writing library : x264 core 157 r2970 5493be8
Encoding settings : cabac=1 / ref=9 / deblock=1:-3:-3 / analyse=0x3:0x133 / me=umh / subme=10 / psy=1 / psy_rd=1.15:0.00 / mixed_ref=1 / me_range=24 / chroma_me=1 / trellis=2 / 8x8dct=1 / cqm=0 / deadzone=21,11 / fast_pskip=0 / chroma_qp_offset=-2 / threads=22 / lookahead_threads=5 / sliced_threads=0 / nr=0 / decimate=0 / interlaced=0 / bluray_compat=0 / constrained_intra=0 / bframes=10 / b_pyramid=2 / b_adapt=2 / b_bias=0 / direct=3 / weightb=1 / open_gop=0 / weightp=2 / keyint=240 / keyint_min=24 / scenecut=40 / intra_refresh=0 / rc=crf / mbtree=0 / crf=19.9 / qcomp=0.60 / qpmin=0 / qpmax=69 / qpstep=4 / ip_ratio=1.30 / pb_ratio=1.20 / aq=3:0.70
Default : Yes
Forced : No

Audio #1
ID : 2
Format : FLAC
Format/Info : Free Lossless Audio Codec
Codec ID : A_FLAC
Duration : 1 h 59 min
Bit rate mode : Variable
Bit rate : 612 kb/s
Channel(s) : 1 channel
Channel layout : C
Sampling rate : 48.0 kHz
Frame rate : 11.719 FPS (4096 SPF)
Bit depth : 24 bits
Compression mode : Lossless
Stream size : 522 MiB (5%)
Writing library : libFLAC 1.2.1 (UTC 2007-09-17)
Language : English
Default : Yes
Forced : No

Audio #2
ID : 3
Format : AAC LC
Format/Info : Advanced Audio Codec Low Complexity
Codec ID : A_AAC-2
Duration : 1 h 59 min
Bit rate : 92.1 kb/s
Channel(s) : 2 channels
Channel layout : L R
Sampling rate : 48.0 kHz
Frame rate : 46.875 FPS (1024 SPF)
Compression mode : Lossy
Delay relative to video : 9 ms
Stream size : 78.5 MiB (1%)
Title : Commentary with author and film historian Neil Sinyard
Default : No
Forced : No

Text #1
ID : 4
Format : UTF-8
Codec ID : S_TEXT/UTF8
Codec ID/Info : UTF-8 Plain Text
Duration : 1 h 54 min
Bit rate : 27 b/s
Count of elements : 753
Stream size : 23.1 KiB (0%)
Title : Stripped SRT
Language : English
Default : No
Forced : No

Text #2
ID : 5
Format : UTF-8
Codec ID : S_TEXT/UTF8
Codec ID/Info : UTF-8 Plain Text
Duration : 1 h 56 min
Bit rate : 28 b/s
Count of elements : 823
Stream size : 24.3 KiB (0%)
Title : SDH SRT
Language : English
Default : No
Forced : No

Text #3
ID : 6
Format : PGS
Muxing mode : zlib
Codec ID : S_HDMV/PGS
Codec ID/Info : Picture based subtitle format used on BDs/HD-DVDs
Duration : 1 h 56 min
Bit rate : 12.5 kb/s
Count of elements : 1646
Stream size : 10.4 MiB (0%)
Title : SDH
Language : English
Default : No
Forced : No

Menu
00:00:00.000 : :Chapter 01
00:08:56.870 : :Chapter 02
00:17:49.819 : :Chapter 03
00:32:35.328 : :Chapter 04
00:39:37.166 : :Chapter 05
00:50:04.835 : :Chapter 06
00:58:19.996 : :Chapter 07
01:11:46.385 : :Chapter 08
01:19:51.745 : :Chapter 09
01:31:08.588 : :Chapter 10
01:41:55.484 : :Chapter 11
01:51:33.145 : :Chapter 12

plugin.php?id=dxksst_download:download&inf=YXR0YWNobWVudHxNVEk0TmprM2ZHVTNaV1ZrT1RCbGZERTFOakk0T0RrME1qZDhNSHd4T1RJNU1qWSUzRHx0b3JyZW50fDU0NTA3fDEwfDE2NWYyOTMxY2NhNjA3YmI5MzI3MDRhNDM3MWQxYzdlLnRvcnJlbnR8MHw=">165f2931cca607bb932704a4371d1c7e.torrent(53.23 KB)2019-7-2 09:37 上传
点击文件名下载附件
165f2931cca607bb932704a4371d1c7e.torrent

回复

使用道具 举报

小黑屋|百度云资源论坛 ( 闽ICP备16005822号-1 )

本网站所有资源来自网络,如无意中侵犯了您的权益,请发邮件至 [email protected],立即清除相关链接

GMT+8, 2019-10-16 01:47 , Processed in 0.059727 second(s), 16 queries .

Powered by Discuz! X3.2

© 2001-2013 Comsenz Inc.

快速回复 返回顶部 返回列表