百度云资源论坛

 找回密码
 立即注册
搜索
热搜: 百度云资源
开启左侧

负载/天灾人货 Carga.2018.720p.BluRay.x264.DTS-FGT 5.56GB

[复制链接]
923579013 发表于 2019-7-12 00:58:44 | 显示全部楼层 |阅读模式
帖子完整标题:负载/天灾人货 Carga.2018.720p.BluRay.x264.DTS-FGT 5.56GB





◎译  名 负载 / 天灾人货
◎片  名 Carga
◎年  代 2018
◎产  地 Portugal / Russian
◎类  别 剧情
◎语  言 英语 / Russian
◎IMDb评分 5.6/10 from 288 users
◎导  演 Bruno Gascon
◎编  剧 Bruno Gascon
◎主  演 米卡丽娜·欧赞思佳 Michalina Olszańska
      Sara Sampaio
      Ana Cristina de Oliveira


◎标  签 贩卖人口 | 剧情 | 犯罪 | 俄罗斯 | [歐美] | 2018 | ----

◎简  介

  A lorry, a road and an unpredictable destiny, all intersecting in a human trafficking network. Caught up in this web, Viktoriya has only one chance: fight to survive.
Video
ID : 1
Format : AVC
Format/Info : Advanced Video Codec
Format settings : CABAC / 4 Ref Frames
Format settings, CABAC : Yes
Format settings, ReFrames : 4 frames
Codec ID : V_MPEG4/ISO/AVC
Duration : 1 h 53 min
Bit rate : 5 500 kb/s
Width : 1 280 pixels
Height : 534 pixels
Display aspect ratio : 2.40:1
Original display aspect ratio : 2.40:1
Frame rate mode : Constant
Frame rate : 24.000 FPS
Color space : YUV
Chroma subsampling : 4:2:0
Bit depth : 8 bits
Scan type : Progressive
Bits/(Pixel*Frame) : 0.335
Stream size : 4.36 GiB (78%)
Title : Carga.2018.720p.BluRay.x264.DTS-FGT
Writing library : x264 core 148 r2795M aaa9aa8
Encoding settings : cabac=1 / ref=4 / deblock=1:-2:-2 / analyse=0x3:0x113 / me=umh / subme=9 / psy=1 / psy_rd=1.00:0.15 / mixed_ref=1 / me_range=16 / chroma_me=1 / trellis=2 / 8x8dct=1 / cqm=0 / deadzone=21,11 / fast_pskip=1 / chroma_qp_offset=-3 / threads=24 / lookahead_threads=3 / sliced_threads=0 / nr=0 / decimate=1 / interlaced=0 / bluray_compat=0 / constrained_intra=0 / bframes=3 / b_pyramid=2 / b_adapt=1 / b_bias=0 / direct=3 / weightb=1 / open_gop=0 / weightp=2 / keyint=250 / keyint_min=25 / scenecut=40 / intra_refresh=0 / rc_lookahead=50 / rc=2pass / mbtree=1 / bitrate=5500 / ratetol=1.0 / qcomp=0.60 / qpmin=0 / qpmax=69 / qpstep=4 / cplxblur=20.0 / qblur=0.5 / vbv_maxrate=31250 / vbv_bufsize=31250 / nal_hrd=none / filler=0 / ip_ratio=1.40 / aq=1:1.00
Language : English
Default : Yes
Forced : No

Audio
ID : 2
Format : DTS
Format/Info : Digital Theater Systems
Codec ID : A_DTS
Duration : 1 h 53 min
Bit rate mode : Constant
Bit rate : 1 509 kb/s
Channel(s) : 6 channels
Channel layout : C L R Ls Rs LFE
Sampling rate : 48.0 kHz
Frame rate : 93.750 FPS (512 SPF)
Bit depth : 24 bits
Compression mode : Lossy
Stream size : 1.20 GiB (22%)
Title : Carga.2018.720p.BluRay.x264.DTS-FGT
Language : English
Default : Yes
Forced : No

Text #1
ID : 3
Format : UTF-8
Codec ID : S_TEXT/UTF8
Codec ID/Info : UTF-8 Plain Text
Duration : 1 h 47 min
Bit rate : 18 b/s
Count of elements : 619
Stream size : 14.5 KiB (0%)
Language : English
Default : Yes
Forced : No

Text #2
ID : 4
Format : UTF-8
Codec ID : S_TEXT/UTF8
Codec ID/Info : UTF-8 Plain Text
Duration : 1 h 49 min
Bit rate : 22 b/s
Count of elements : 789
Stream size : 17.8 KiB (0%)
Title : SDH
Language : English
Default : No
Forced : No

Menu
00:00:00.000 : en:Chapter 01
00:09:43.667 : en:Chapter 02
00:21:49.958 : en:Chapter 03
00:31:50.375 : en:Chapter 04
00:41:27.625 : en:Chapter 05
00:50:13.125 : en:Chapter 06
01:01:46.875 : en:Chapter 07
01:11:02.583 : en:Chapter 08
01:20:36.333 : en:Chapter 09
01:30:08.708 : en:Chapter 10
01:40:05.917 : en:Chapter 11
01:49:41.083 : en:Chapter 12

https://imagecurl.com/viewer.php?pold=10840634126923589946.pngplugin.php?id=dxksst_download:download&inf=YXR0YWNobWVudHxNVEk0TmprMmZHSXdaRGN6T0RGa2ZERTFOakk0T0RrME16QjhNSHd4T1RJNU1qVSUzRHx0b3JyZW50fDI4OTgzfDE0fGY0ZTE4MTJkYWVjNWM4N2JmMGNhYWE1ZTc1M2IzYzRmLnRvcnJlbnR8MHw=">f4e1812daec5c87bf0caaa5e753b3c4f.torrent(28.3 KB)2019-7-2 09:37 上传
点击文件名下载附件
f4e1812daec5c87bf0caaa5e753b3c4f.torrent

回复

使用道具 举报

小黑屋|百度云资源论坛 ( 闽ICP备16005822号-1 )

本网站所有资源来自网络,如无意中侵犯了您的权益,请发邮件至 [email protected],立即清除相关链接

GMT+8, 2019-10-20 23:24 , Processed in 0.045752 second(s), 15 queries .

Powered by Discuz! X3.4

© 2001-2017 Comsenz Inc.

快速回复 返回顶部 返回列表