百度云资源论坛

 找回密码
 立即注册
搜索
热搜: 百度云资源
开启左侧

多米诺骨牌 Domino.2019.720p.BluRay.x264-AAA 4.37GB

[复制链接]
百度云资源 发表于 2019-8-6 08:37:31 | 显示全部楼层 |阅读模式


帖子完整标题:多米诺骨牌 Domino.2019.720p.BluRay.x264-AAA 4.37GB





◎译  名 多米诺骨牌
◎片  名 Domino
◎年  代 2019
◎产  地 丹麦 / 法国 / 意大利 / 比利时 / 荷兰
◎类  别 惊悚 / 犯罪
◎语  言 英语
◎上映日期 2019-06-06(意大利)
◎IMDb评分  7.5/10 from 11 users
◎片  长 89分钟
◎导  演 布莱恩·德·帕尔玛 Brian De Palma
◎编  剧 彼特·斯卡弗兰 Petter Skavlan
◎主  演 卡里斯·范·侯登 Carice van Houten
      尼古拉·科斯特-瓦尔道 Nikolaj Coster-Waldau
      盖·皮尔斯 Guy Pearce
      尼可拉斯·布若 Nicolas Bro
      索伦·莫灵 S?ren Malling
      托马斯·加比利尔森 Thomas W. Gabrielsson
      帕普丽卡·斯汀 Paprika Steen
      雅各布·乌尔里克·罗曼 Jakob Ulrik Lohmann
      艾瑞克·艾伯纳尼 Eriq Ebouaney
      埃拉·琼·昂拉尔 Ella-June Henrard
      杜菲·阿尔-加布尔 Dulfi Al-Jabouri
      强·朗格 Jon Lange
      尤尼斯·贝希尔 Younes Bachir
      克里斯蒂安·布朗查特 Christian Bronchart
      Ardalan Esmaili
      Ilias Addab
      Iliass Ojja
      Sus Wilkins
      Bieke Ilegems
      Juan Aroca


◎标  签 BrianDePalma | 惊悚 | 丹麦 | 电影 | 犯罪 | 美国电影 | 2019 | 美国

◎简  介  

  已有四年未有新作面世的“老帕” 布莱恩·德·帕尔玛将拍摄一部名为《多米诺骨牌(Domino)》(暂译名)的动作惊悚片。《权力的游戏》中的弑君者尼可拉·科斯特-瓦尔道和《广告狂人》饰演Joan的克里斯蒂娜·亨德里克斯将出演男女主角。
《多米诺骨牌》由彼特·斯卡兰(《苏菲的世界》)担任编剧,故事中,男主角是一名哥本哈根当地的警察,在搭档被神秘人暗杀后,他与搭档的情妇合作追踪凶手。不料在这个过程中却被一个阴险的中央情报局警探暗算,被劫持到了西班牙。影片将在丹麦和西班牙拍摄,IM Global公司将代理其全球事务,北美事宜则将由ICM公司代理。
据悉,影片将于今年夏天开拍。

Video
ID                                       : 1
Format                                   : AVC
Format/Info                              : Advanced Video Codec
Format settings                          : CABAC / 5 Ref Frames
Format settings, CABAC                   : Yes
Format settings, Reference frames        : 5 frames
Codec ID                                 : V_MPEG4/ISO/AVC
Duration                                 : 1 h 29 min
Bit rate                                 : 5 496 kb/s
Width                                    : 1 280 pixels
Height                                   : 672 pixels
Display aspect ratio                     : 1.905
Frame rate mode                          : Constant
Frame rate                               : 23.976 (24000/1001) FPS
Color space                              : YUV
Chroma subsampling                       : 4:2:0
Bit depth                                : 8 bits
Scan type                                : Progressive
Bits/(Pixel*Frame)                       : 0.266
Stream size                              : 3.43 GiB (78%)
Title                                    : Domino.2019.720p.BluRay.x264-AAA
Writing library                          : x264 core 157 r2969 d4099dd
Encoding settings                        : cabac=1 / ref=5 / deblock=1:0:0 / analyse=0x3:0x113 / me=umh / subme=8 / psy=1 / psy_rd=1.00:0.00 / mixed_ref=1 / me_range=16 / chroma_me=1 / trellis=2 / 8x8dct=1 / cqm=0 / deadzone=21,11 / fast_pskip=1 / chroma_qp_offset=-2 / threads=21 / lookahead_threads=3 / sliced_threads=0 / nr=0 / decimate=1 / interlaced=0 / bluray_compat=0 / constrained_intra=0 / bframes=3 / b_pyramid=2 / b_adapt=2 / b_bias=0 / direct=3 / weightb=1 / open_gop=0 / weightp=2 / keyint=240 / keyint_min=23 / scenecut=40 / intra_refresh=0 / rc_lookahead=50 / rc=2pass / mbtree=1 / bitrate=5496 / ratetol=1.0 / qcomp=0.60 / qpmin=0 / qpmax=69 / qpstep=4 / cplxblur=20.0 / qblur=0.5 / ip_ratio=1.40 / aq=1:1.00
Default                                  : Yes
Forced                                   : Yes

Audio
ID                                       : 2
Format                                   : DTS
Format/Info                              : Digital Theater Systems
Codec ID                                 : A_DTS
Duration                                 : 1 h 29 min
Bit rate mode                            : Constant
Bit rate                                 : 1 509 kb/s
Channel(s)                               : 6 channels
Channel layout                           : C L R Ls Rs LFE
Sampling rate                            : 48.0 kHz
Frame rate                               : 93.750 FPS (512 SPF)
Bit depth                                : 24 bits
Compression mode                         : Lossy
Stream size                              : 964 MiB (22%)
Title                                    : English
Language                                 : English
Default                                  : Yes
Forced                                   : Yes

Text
ID                                       : 3
Format                                   : UTF-8
Codec ID                                 : S_TEXT/UTF8
Codec ID/Info                            : UTF-8 Plain Text
Duration                                 : 1 h 22 min
Bit rate                                 : 42 b/s
Count of elements                        : 881
Stream size                              : 25.4 KiB (0%)
Title                                    : English SDH
Language                                 : English
Default                                  : No
Forced                                   : No




                                                                                                                                                                                                        
                                                                                                                                                                                                                                                                                                                                                                                                                                                                                                                                                                                                                                                                                                                                                                                                                                                        
5306a4bd012b6509d613bdbd9c19e3bd.torrent (44.35 KB, 下载次数: 0)

回复

使用道具 举报

小黑屋|百度云资源论坛 ( 闽ICP备16005822号-1 )

本网站所有资源来自网络,如无意中侵犯了您的权益,请发邮件至 [email protected],立即清除相关链接

GMT+8, 2019-8-26 16:24 , Processed in 0.064288 second(s), 19 queries .

Powered by Discuz! X3.2

© 2001-2013 Comsenz Inc.

快速回复 返回顶部 返回列表