百度云资源论坛

 找回密码
 立即注册
搜索
热搜: 百度云资源
开启左侧

乐高DC蝙蝠侠:家族事务 LEGO.DC.Batman.Family.Matters.2019.720p.BluRay...

[复制链接]
百度云资源 发表于 2019-8-6 08:37:32 | 显示全部楼层 |阅读模式




帖子完整标题:乐高DC蝙蝠侠:家族事务 LEGO.DC.Batman.Family.Matters.2019.720p.BluRay.x264-AAA 2.18GB





◎译  名 乐高DC蝙蝠侠:家族事务 / LEGO DC: Batman - Family Matters
◎片  名 LEGO DC  Batman: Family Matters
◎年  代 2019
◎产  地 美国
◎类  别 喜剧 / 动画 / 犯罪
◎语  言 英语
◎上映日期 2019-08-06(美国)
◎导  演 Matt Peters
◎编  剧 杰瑞米·亚当斯 Jeremy Adams
◎主  演 特罗伊·贝克 Troy Baker
      史蒂夫·布卢姆 Steve Blum
      扎克·卡利森 Zach Callison
      拉尔夫·加曼 Ralph Garman
      Jake Green
      汤姆·肯尼 Tom Kenny
      斯科特·门维尔 Scott Menville
      诺兰·诺斯 Nolan North
      杰森·斯皮萨克 Jason Spisak
      艾莉森·斯通勒 Alyson Stoner
      塔拉·斯特朗 Tara Strong


◎标  签 DC | 动画 | LEGO | 美国 | 2019 | 漫画改编 | 喜剧 | 科幻

◎简  介  

  Batman, Robin and Batgirl must stick together even when Gotham’s most dangerous villains attempt to pull them apart in LEGO? DC: Batman – Family Matters, the latest animated adventure in the LEGO DC series. Produced by Warner Bros. Animation, DC Entertainment and the LEGO Group,

Video
ID                                       : 1
Format                                   : AVC
Format/Info                              : Advanced Video Codec
Format settings                          : CABAC / 5 Ref Frames
Format settings, CABAC                   : Yes
Format settings, Reference frames        : 5 frames
Codec ID                                 : V_MPEG4/ISO/AVC
Duration                                 : 1 h 19 min
Bit rate                                 : 2 438 kb/s
Width                                    : 1 280 pixels
Height                                   : 720 pixels
Display aspect ratio                     : 16:9
Frame rate mode                          : Constant
Frame rate                               : 23.976 (24000/1001) FPS
Color space                              : YUV
Chroma subsampling                       : 4:2:0
Bit depth                                : 8 bits
Scan type                                : Progressive
Bits/(Pixel*Frame)                       : 0.110
Stream size                              : 1.35 GiB (62%)
Title                                    : LEGO.DC.Batman.Family.Matters.2019.720p.BluRay.x264-AAA
Writing library                          : x264 core 157 r2969 d4099dd
Encoding settings                        : cabac=1 / ref=5 / deblock=1:0:0 / analyse=0x3:0x113 / me=umh / subme=8 / psy=1 / psy_rd=1.00:0.00 / mixed_ref=1 / me_range=16 / chroma_me=1 / trellis=1 / 8x8dct=1 / cqm=0 / deadzone=21,11 / fast_pskip=1 / chroma_qp_offset=-2 / threads=16 / lookahead_threads=2 / sliced_threads=0 / nr=0 / decimate=1 / interlaced=0 / bluray_compat=0 / constrained_intra=0 / bframes=3 / b_pyramid=2 / b_adapt=2 / b_bias=0 / direct=3 / weightb=1 / open_gop=0 / weightp=2 / keyint=240 / keyint_min=23 / scenecut=40 / intra_refresh=0 / rc_lookahead=50 / rc=2pass / mbtree=1 / bitrate=2438 / ratetol=1.0 / qcomp=0.60 / qpmin=0 / qpmax=69 / qpstep=4 / cplxblur=20.0 / qblur=0.5 / ip_ratio=1.40 / aq=1:1.00
Language                                 : English
Default                                  : Yes
Forced                                   : No

Audio
ID                                       : 2
Format                                   : DTS
Format/Info                              : Digital Theater Systems
Codec ID                                 : A_DTS
Duration                                 : 1 h 19 min
Bit rate mode                            : Constant
Bit rate                                 : 1 509 kb/s
Channel(s)                               : 6 channels
Channel layout                           : C L R Ls Rs LFE
Sampling rate                            : 48.0 kHz
Frame rate                               : 93.750 FPS (512 SPF)
Bit depth                                : 24 bits
Compression mode                         : Lossy
Stream size                              : 854 MiB (38%)
Language                                 : English
Default                                  : Yes
Forced                                   : No

Text
ID                                       : 3
Format                                   : UTF-8
Codec ID                                 : S_TEXT/UTF8
Codec ID/Info                            : UTF-8 Plain Text
Duration                                 : 1 h 15 min
Bit rate                                 : 77 b/s
Count of elements                        : 1438
Stream size                              : 42.9 KiB (0%)
Title                                    : English SDH
Language                                 : English
Default                                  : No
Forced                                   : No

Menu
00:00:00.000                             : en:00:00:00.000
00:10:28.545                             : en:00:10:28.545
00:19:00.723                             : en:00:19:00.723
00:30:51.349                             : en:00:30:51.349
00:38:06.618                             : en:00:38:06.618
00:48:50.970                             : en:00:48:50.970
00:58:50.944                             : en:00:58:50.944
01:11:20.860                             : en:01:11:20.860
01:15:15.636                             : en:01:15:15.636




                                                                                                                                                                                                        
                                                                                                                                                                                                                                                                                                                                                                                                                                                                                                                                                                                                                                                                                                                                                                                                                                                        
b705e3336bcab336f98434d68dc73f84.torrent (22.5 KB, 下载次数: 0)

回复

使用道具 举报

小黑屋|百度云资源论坛 ( 闽ICP备16005822号-1 )

本网站所有资源来自网络,如无意中侵犯了您的权益,请发邮件至 [email protected],立即清除相关链接

GMT+8, 2019-8-26 16:26 , Processed in 0.060426 second(s), 19 queries .

Powered by Discuz! X3.2

© 2001-2013 Comsenz Inc.

快速回复 返回顶部 返回列表