百度云资源论坛

 找回密码
 立即注册
搜索
热搜: 百度云资源
开启左侧

魔精攻击 Critters.Attack.2019.720p.BluRay.x264.DTS-FGT 4.37GB

[复制链接]
百度云资源 发表于 2019-8-6 08:37:33 | 显示全部楼层 |阅读模式




帖子完整标题:魔精攻击 Critters.Attack.2019.720p.BluRay.x264.DTS-FGT 4.37GB





◎译  名 魔精攻击 / Critters 5
◎片  名 Critters Attack!
◎年  代 2019
◎产  地 美国
◎类  别 喜剧 / 科幻 / 恐怖
◎语  言 英语
◎IMDb评分  3.9/10 from 158 users
◎编  剧 斯科特·洛布德尔 Scott Lobdell / Domonic Muir
◎主  演 Tashiana Washington
      迪·沃伦斯 Dee Wallace
      贾登·诺埃尔 Jaeden Noel
      杰克·富尔顿 Jack Fulton
      艾娃·普雷斯顿 Ava Preston
      莱昂·克林曼 Leon Clingman
      Vash Singh
      史蒂夫·布卢姆 Steve Blum
      周豪 Ho Chow
      Alex Jeaven
      Nathan Lynn
      Sven Ruygrok


◎简  介  

  Follows 20-year-old Drea, who reluctantly takes a job babysitting for a professor of a college she hopes to attend. Struggling to entertain the professor's children Trissy and Jake, along with her own little brother Phillip , Drea takes them on a hike, unaware that mysterious alien critters have crash-landed and started devouring every living thing they encounter.

Video
ID                                       : 1
Format                                   : AVC
Format/Info                              : Advanced Video Codec
Format settings                          : CABAC / 4 Ref Frames
Format settings, CABAC                   : Yes
Format settings, Reference frames        : 4 frames
Codec ID                                 : V_MPEG4/ISO/AVC
Duration                                 : 1 h 29 min
Bit rate                                 : 5 500 kb/s
Width                                    : 1 280 pixels
Height                                   : 720 pixels
Display aspect ratio                     : 16:9
Frame rate mode                          : Constant
Frame rate                               : 23.976 (24000/1001) FPS
Color space                              : YUV
Chroma subsampling                       : 4:2:0
Bit depth                                : 8 bits
Scan type                                : Progressive
Bits/(Pixel*Frame)                       : 0.249
Stream size                              : 3.43 GiB (78%)
Title                                    : Critters.Attack.2019.720p.BluRay.x264.DTS-FGT
Writing library                          : x264 core 148 r2795M aaa9aa8
Encoding settings                        : cabac=1 / ref=4 / deblock=1:-2:-2 / analyse=0x3:0x113 / me=umh / subme=9 / psy=1 / psy_rd=1.00:0.15 / mixed_ref=1 / me_range=16 / chroma_me=1 / trellis=2 / 8x8dct=1 / cqm=0 / deadzone=21,11 / fast_pskip=1 / chroma_qp_offset=-3 / threads=24 / lookahead_threads=3 / sliced_threads=0 / nr=0 / decimate=1 / interlaced=0 / bluray_compat=0 / constrained_intra=0 / bframes=3 / b_pyramid=2 / b_adapt=1 / b_bias=0 / direct=3 / weightb=1 / open_gop=0 / weightp=2 / keyint=250 / keyint_min=25 / scenecut=40 / intra_refresh=0 / rc_lookahead=50 / rc=2pass / mbtree=1 / bitrate=5500 / ratetol=1.0 / qcomp=0.60 / qpmin=0 / qpmax=69 / qpstep=4 / cplxblur=20.0 / qblur=0.5 / vbv_maxrate=31250 / vbv_bufsize=31250 / nal_hrd=none / filler=0 / ip_ratio=1.40 / aq=1:1.00
Language                                 : English
Default                                  : Yes
Forced                                   : No

Audio
ID                                       : 2
Format                                   : DTS
Format/Info                              : Digital Theater Systems
Codec ID                                 : A_DTS
Duration                                 : 1 h 29 min
Bit rate mode                            : Constant
Bit rate                                 : 1 509 kb/s
Channel(s)                               : 6 channels
Channel layout                           : C L R Ls Rs LFE
Sampling rate                            : 48.0 kHz
Frame rate                               : 93.750 FPS (512 SPF)
Bit depth                                : 24 bits
Compression mode                         : Lossy
Stream size                              : 964 MiB (22%)
Title                                    : Critters.Attack.2019.720p.BluRay.x264.DTS-FGT
Language                                 : English
Default                                  : Yes
Forced                                   : No

Text
ID                                       : 3
Format                                   : UTF-8
Codec ID                                 : S_TEXT/UTF8
Codec ID/Info                            : UTF-8 Plain Text
Duration                                 : 1 h 24 min
Bit rate                                 : 43 b/s
Count of elements                        : 942
Stream size                              : 26.9 KiB (0%)
Language                                 : English
Default                                  : Yes
Forced                                   : No

Menu
00:00:00.000                             : en:Chapter 1
00:08:59.080                             : en:Chapter 2
00:17:31.967                             : en:Chapter 3
00:26:11.027                             : en:Chapter 4
00:36:25.224                             : en:Chapter 5
00:44:02.222                             : en:Chapter 6
00:51:20.243                             : en:Chapter 7
00:57:42.709                             : en:Chapter 8
01:06:17.932                             : en:Chapter 9
01:15:14.593                             : en:Chapter 10
01:25:30.875                             : en:Chapter 11




                                                                                                                                                                                                        
                                                                                                                                                                                                                                                                                                                                                                                                                                                                                                                                                                                                                                                                                                                                                                                                                                                        
feafb89f9430605c4560fe236d4b8eb0.torrent (44.22 KB, 下载次数: 0)

回复

使用道具 举报

小黑屋|百度云资源论坛 ( 闽ICP备16005822号-1 )

本网站所有资源来自网络,如无意中侵犯了您的权益,请发邮件至 [email protected],立即清除相关链接

GMT+8, 2019-8-26 16:22 , Processed in 0.065891 second(s), 19 queries .

Powered by Discuz! X3.2

© 2001-2013 Comsenz Inc.

快速回复 返回顶部 返回列表