百度云资源论坛

 找回密码
 立即注册
搜索
热搜: 百度云资源
开启左侧

侵入者 The.Intruder.2019.720p.BluRay.x264-DRONES 4.39GB

[复制链接]
百度云资源 发表于 2019-8-6 08:37:37 | 显示全部楼层 |阅读模式




帖子完整标题:侵入者 The.Intruder.2019.720p.BluRay.x264-DRONES 4.39GB





◎译  名 侵入者
◎片  名 The Intruder
◎年  代 2019
◎产  地 美国
◎类  别 剧情 / 悬疑 / 惊悚
◎语  言 英语
◎上映日期 2019-05-03(美国)
◎IMDb评分  5.3/10 from 2759 users/
◎片  长 102分钟
◎导  演 德翁·泰勒 Deon Taylor
◎编  剧 戴维·朗格利 David Loughery
◎主  演 梅根·古德 Meagan Good
      丹尼斯·奎德 Dennis Quaid
      迈克尔·伊雷 Michael Ealy
      约瑟夫·斯科拉 Joseph Sikora
      阿尔维娜·奥古斯特 Alvina August
      德布斯·霍华德 Debs Howard
      莉莉·塞佩 Lili Sepe


◎标  签 惊悚 | 美国 | 2019 | 恐怖 | 英语 | 欧美 | 剧情 | 影院

◎简  介  

  这是一部心理惊悚片,讲述了一对年轻的已婚夫妇在几英亩土地上买了一栋漂亮的纳帕谷房子,结果他们却发现卖家拒绝交房。

Video
ID                                       : 1
Format                                   : AVC
Format/Info                              : Advanced Video Codec
Format settings                          : CABAC / 5 Ref Frames
Format settings, CABAC                   : Yes
Format settings, Reference frames        : 5 frames
Codec ID                                 : V_MPEG4/ISO/AVC
Duration                                 : 1 h 42 min
Bit rate                                 : 4 623 kb/s
Width                                    : 1 280 pixels
Height                                   : 536 pixels
Display aspect ratio                     : 2.40:1
Frame rate mode                          : Constant
Frame rate                               : 23.976 (24000/1001) FPS
Color space                              : YUV
Chroma subsampling                       : 4:2:0
Bit depth                                : 8 bits
Scan type                                : Progressive
Bits/(Pixel*Frame)                       : 0.281
Stream size                              : 3.29 GiB (75%)
Writing library                          : x264 core 158 r2984 3759fcb
Encoding settings                        : cabac=1 / ref=5 / deblock=1:-3:-3 / analyse=0x3:0x113 / me=umh / subme=8 / psy=1 / psy_rd=1.00:0.00 / mixed_ref=1 / me_range=16 / chroma_me=1 / trellis=1 / 8x8dct=1 / cqm=0 / deadzone=21,11 / fast_pskip=1 / chroma_qp_offset=-2 / threads=17 / lookahead_threads=2 / sliced_threads=0 / nr=0 / decimate=1 / interlaced=0 / bluray_compat=0 / constrained_intra=0 / bframes=3 / b_pyramid=2 / b_adapt=1 / b_bias=0 / direct=3 / weightb=1 / open_gop=0 / weightp=2 / keyint=250 / keyint_min=23 / scenecut=40 / intra_refresh=0 / rc_lookahead=50 / rc=2pass / mbtree=1 / bitrate=4623 / ratetol=1.0 / qcomp=0.60 / qpmin=0 / qpmax=69 / qpstep=4 / cplxblur=20.0 / qblur=0.5 / ip_ratio=1.40 / aq=1:1.00
Language                                 : English
Default                                  : Yes
Forced                                   : No

Audio
ID                                       : 2
Format                                   : DTS
Format/Info                              : Digital Theater Systems
Codec ID                                 : A_DTS
Duration                                 : 1 h 42 min
Bit rate mode                            : Constant
Bit rate                                 : 1 509 kb/s
Channel(s)                               : 6 channels
Channel layout                           : C L R Ls Rs LFE
Sampling rate                            : 48.0 kHz
Frame rate                               : 93.750 FPS (512 SPF)
Bit depth                                : 24 bits
Compression mode                         : Lossy
Stream size                              : 1.08 GiB (25%)
Language                                 : English
Default                                  : Yes
Forced                                   : No

Menu
00:00:00.000                             : en:00:00:00.000
00:03:35.590                             : en:00:03:35.590
00:11:51.461                             : en:00:11:51.461
00:16:14.265                             : en:00:16:14.265
00:20:10.793                             : en:00:20:10.793
00:25:31.196                             : en:00:25:31.196
00:30:50.140                             : en:00:30:50.140
00:36:18.510                             : en:00:36:18.510
00:40:45.735                             : en:00:40:45.735
00:45:30.853                             : en:00:45:30.853
00:50:15.179                             : en:00:50:15.179
00:56:59.249                             : en:00:56:59.249
01:02:12.270                             : en:01:02:12.270
01:08:56.507                             : en:01:08:56.507
01:14:16.285                             : en:01:14:16.285
01:23:50.025                             : en:01:23:50.025




                                                                                                                                                                                                        
                                                                                                                                                                                                                                                                                                                                                                                                                                                                                                                                                                                                                                                                                                                                                                                                                                                        
2b8a2509d8bf54fe1a5254e33f79b4bd.torrent (44.74 KB, 下载次数: 0)

回复

使用道具 举报

小黑屋|百度云资源论坛 ( 闽ICP备16005822号-1 )

本网站所有资源来自网络,如无意中侵犯了您的权益,请发邮件至 [email protected],立即清除相关链接

GMT+8, 2019-8-26 16:24 , Processed in 0.088767 second(s), 19 queries .

Powered by Discuz! X3.2

© 2001-2013 Comsenz Inc.

快速回复 返回顶部 返回列表