百度云资源论坛

 找回密码
 立即注册
搜索
热搜: 百度云资源
开启左侧

大侦探皮卡丘 Pokemon.Detective.Pikachu.2019.720p.BluRay.x264-AAA 4.39GB

[复制链接]
百度云资源 发表于 2019-8-6 08:37:38 | 显示全部楼层 |阅读模式





帖子完整标题:大侦探皮卡丘 Pokemon.Detective.Pikachu.2019.720p.BluRay.x264-AAA 4.39GB





◎译  名 大侦探皮卡丘 / Detective Pikachu / POKéMON 名侦探皮卡丘(台) / Pokemon / 名侦探皮卡丘 / 宠物小精灵 / 宠物小精灵之名侦探皮卡丘 / 宠物小精灵真人版 / 精灵宝可梦 / 精灵宝可梦之名侦探皮卡丘 / 精灵宝可梦:大侦探皮卡丘
◎片  名 Pokémon Detective Pikachu
◎年  代 2019
◎产  地 美国 / 日本
◎类  别 喜剧 / 动画 / 奇幻 / 冒险
◎语  言 英语 / 日语
◎上映日期 2019-05-10(美国/中国大陆)
◎IMDb评分  7.0/10 from 22561 users
◎片  长 104分钟
◎导  演 罗伯·莱特曼 Rob Letterman
◎编  剧 尼科尔·帕尔曼 Nicole Perlman / 亚历克斯·赫什 Alex Hirsch / Satoshi Tajiri
◎主  演 瑞恩·雷诺兹 Ryan Reynolds
      贾斯蒂斯·史密斯 Justice Smith
      凯瑟琳·纽顿 Kathryn Newton
      克里斯·吉尔 Chris Geere
      比尔·奈伊 Bill Nighy
      渡边谦 Ken Watanabe
      瑞塔·奥拉 Rita Ora
      苏琪·沃特豪斯 Suki Waterhouse
      卡兰·索尼 Karan Soni
      普莉安卡·伯福德 Priyanga Burford
      乔丹·朗 Jordan Long
      贝恩·科拉科 Bern Colla?o
      卡迪夫柯万 Kadiff Kirwan
      奥马尔·查帕罗 Omar Chaparro
      伯纳多·桑托斯 Bernardo Santos
      大谷育江 Ikue Ootani
      露丝·霍洛克斯 Ruth Horrocks
      丹尼尔·厄根 Daniel Eghan
      贾格·帕特尔 Jag Patel
      查利·蕾娅·埃斯奎尔 Charlie Rhea Esquér
      黛博拉·洛克 Deborah Rock
      所罗门·塔伊沃·贾斯提费尔德 Solomon Taiwo Justified
      尼克·欧文福特 Nick Owenford
      凯文·马塔迪恩 Kevin Matadeen
      Diplo


◎标  签 动画 | 美国 | 童年 | 2019 | 日本 | 喜剧 | 动漫 | 游戏改编

◎简  介  

  好莱坞真人电影《大侦探皮卡丘》(暂译)讲述了蒂姆·古德曼(贾 斯 提·史密斯饰) 为寻找下落不明的父亲来到莱姆市,意外与父亲的前宝可梦搭档大侦探皮卡丘相遇,并惊讶地发现自己是唯一能听懂皮卡丘说话的人类,他们决定组队踏上揭开真相的刺激冒险之路。探案过程中他们邂逅了各式各样 的宝可梦,并意外发现了一个足以毁灭整个宝可梦宇宙的惊天阴谋。该电影改编自任天堂3DS同名游戏,由罗伯·莱特曼导演,瑞安·雷诺兹为大侦探皮卡丘配音,贾斯提斯·史密斯、凯瑟琳·纽顿等主演。

◎获奖情况  

  第5届豆瓣电影年度榜单(2018)
  最值得期待的外语电影(提名)



Video
ID                                       : 1
Format                                   : AVC
Format/Info                              : Advanced Video Codec
Format settings                          : CABAC / 5 Ref Frames
Format settings, CABAC                   : Yes
Format settings, Reference frames        : 5 frames
Codec ID                                 : V_MPEG4/ISO/AVC
Duration                                 : 1 h 44 min
Bit rate                                 : 5 341 kb/s
Width                                    : 1 280 pixels
Height                                   : 536 pixels
Display aspect ratio                     : 2.40:1
Frame rate mode                          : Constant
Frame rate                               : 23.976 (24000/1001) FPS
Color space                              : YUV
Chroma subsampling                       : 4:2:0
Bit depth                                : 8 bits
Scan type                                : Progressive
Bits/(Pixel*Frame)                       : 0.325
Stream size                              : 3.90 GiB (89%)
Writing library                          : x264 core 157 r2969 d4099dd
Encoding settings                        : cabac=1 / ref=5 / deblock=1:1:1 / analyse=0x3:0x133 / me=umh / subme=8 / psy=1 / psy_rd=1.00:0.00 / mixed_ref=1 / me_range=16 / chroma_me=1 / trellis=2 / 8x8dct=1 / cqm=0 / deadzone=21,11 / fast_pskip=0 / chroma_qp_offset=-2 / threads=17 / lookahead_threads=2 / sliced_threads=0 / nr=0 / decimate=1 / interlaced=0 / bluray_compat=0 / constrained_intra=0 / bframes=3 / b_pyramid=2 / b_adapt=2 / b_bias=0 / direct=3 / weightb=1 / open_gop=0 / weightp=2 / keyint=250 / keyint_min=23 / scenecut=40 / intra_refresh=0 / rc_lookahead=50 / rc=2pass / mbtree=1 / bitrate=5341 / ratetol=1.0 / qcomp=0.60 / qpmin=0 / qpmax=69 / qpstep=4 / cplxblur=20.0 / qblur=0.5 / ip_ratio=1.40 / aq=1:1.00
Language                                 : English
Default                                  : Yes
Forced                                   : No

Audio
ID                                       : 2
Format                                   : AC-3
Format/Info                              : Audio Coding 3
Commercial name                          : Dolby Digital
Codec ID                                 : A_AC3
Duration                                 : 1 h 44 min
Bit rate mode                            : Constant
Bit rate                                 : 640 kb/s
Channel(s)                               : 6 channels
Channel layout                           : L R C LFE Ls Rs
Sampling rate                            : 48.0 kHz
Frame rate                               : 31.250 FPS (1536 SPF)
Bit depth                                : 16 bits
Compression mode                         : Lossy
Stream size                              : 478 MiB (11%)
Language                                 : English
Service kind                             : Complete Main
Default                                  : Yes
Forced                                   : No

Text
ID                                       : 3
Format                                   : UTF-8
Codec ID                                 : S_TEXT/UTF8
Codec ID/Info                            : UTF-8 Plain Text
Duration                                 : 1 h 36 min
Bit rate                                 : 69 b/s
Count of elements                        : 1597
Stream size                              : 49.1 KiB (0%)
Language                                 : English
Default                                  : No
Forced                                   : No

Menu
00:00:00.000                             : en:00:00:00.000
00:06:55.957                             : en:00:06:55.957
00:15:36.686                             : en:00:15:36.686
00:24:06.445                             : en:00:24:06.445
00:31:00.108                             : en:00:31:00.108
00:40:45.943                             : en:00:40:45.943
00:49:57.077                             : en:00:49:57.077
00:59:49.669                             : en:00:59:49.669
01:09:22.784                             : en:01:09:22.784
01:16:59.990                             : en:01:16:59.990
01:23:20.829                             : en:01:23:20.829
01:30:55.367                             : en:01:30:55.367
01:35:49.160                             : en:01:35:49.160




                                                                                                                                                                                                        
                                                                                                                                                                                                                                                                                                                                                                                                                                                                                                                                                                                                                                                                                                                                                                                                                                                        
ea857afe4684cc9e182bf2371c97bec4.torrent (44.79 KB, 下载次数: 0)

回复

使用道具 举报

小黑屋|百度云资源论坛 ( 闽ICP备16005822号-1 )

本网站所有资源来自网络,如无意中侵犯了您的权益,请发邮件至 [email protected],立即清除相关链接

GMT+8, 2019-8-26 16:26 , Processed in 0.064713 second(s), 19 queries .

Powered by Discuz! X3.2

© 2001-2013 Comsenz Inc.

快速回复 返回顶部 返回列表