百度云资源论坛

 找回密码
 立即注册
搜索
热搜: 百度云资源
开启左侧

轻舟英雄/轻舟敢死队 The.Cockleshell.Heroes.1955.720p.BluRay.x264-SPO...

[复制链接]
百度云资源 发表于 2019-8-6 08:37:39 | 显示全部楼层 |阅读模式




帖子完整标题:轻舟英雄/轻舟敢死队 The.Cockleshell.Heroes.1955.720p.BluRay.x264-SPOOKS 4.38GB





◎译  名 轻舟英雄 / 轻舟敢死队 / 轻舟突击队
◎片  名 The Cockleshell Heroes
◎年  代 1955
◎产  地 英国
◎类  别 剧情 / 动作 / 战争
◎语  言 英语 / 法语 / 德语
◎上映日期 1955
◎片  长 USA: 97 分钟
◎导  演 José Ferrer
◎编  剧 Bryan Forbes / George Kent
◎主  演 José Ferrer
      Trevor Howard
      Dora Bryan


◎标  签 二战 | 英国 | 英国电影 | 战争 | 历史 | 50年代 | 经典老片 | 英國

◎简  介  

  一个英军预备役少校和一个经验丰富的上尉带领一队散漫的新兵去执行一项自杀性任务:彻底摧毁一个位于德占法国的德军船坞。
影片基于真实故事,一队皇家海军由潜艇送到法国吉伦特河口,他们从那里开始划小艇去进攻所谓“攻不破”的港口 - 波尔多港[三天航程]。他们完成了炸毁德军军舰和货轮的任务,下面的问题是他们如何逃脱...

Video
ID                                       : 1
Format                                   : AVC
Format/Info                              : Advanced Video Codec
Format settings                          : CABAC / 12 Ref Frames
Format settings, CABAC                   : Yes
Format settings, Reference frames        : 12 frames
Codec ID                                 : V_MPEG4/ISO/AVC
Duration                                 : 1 h 37 min
Bit rate                                 : 5 745 kb/s
Width                                    : 1 280 pixels
Height                                   : 544 pixels
Display aspect ratio                     : 2.35:1
Frame rate mode                          : Constant
Frame rate                               : 23.976 (24000/1001) FPS
Color space                              : YUV
Chroma subsampling                       : 4:2:0
Bit depth                                : 8 bits
Scan type                                : Progressive
Bits/(Pixel*Frame)                       : 0.344
Stream size                              : 3.93 GiB (90%)
Writing library                          : x264 core 158 r2984 3759fcb
Encoding settings                        : cabac=1 / ref=12 / deblock=1:-3:-3 / analyse=0x3:0x133 / me=umh / subme=9 / psy=1 / psy_rd=1.00:0.00 / mixed_ref=1 / me_range=24 / chroma_me=1 / trellis=1 / 8x8dct=1 / cqm=0 / deadzone=21,11 / fast_pskip=0 / chroma_qp_offset=-2 / threads=17 / lookahead_threads=2 / sliced_threads=0 / nr=0 / decimate=1 / interlaced=0 / bluray_compat=0 / constrained_intra=0 / bframes=8 / b_pyramid=2 / b_adapt=2 / b_bias=0 / direct=3 / weightb=1 / open_gop=0 / weightp=2 / keyint=250 / keyint_min=23 / scenecut=40 / intra_refresh=0 / rc_lookahead=60 / rc=2pass / mbtree=1 / bitrate=5745 / ratetol=1.0 / qcomp=0.60 / qpmin=0 / qpmax=69 / qpstep=4 / cplxblur=20.0 / qblur=0.5 / vbv_maxrate=62500 / vbv_bufsize=78125 / nal_hrd=none / filler=0 / ip_ratio=1.40 / aq=1:1.00
Default                                  : Yes
Forced                                   : No

Audio
ID                                       : 2
Format                                   : AC-3
Format/Info                              : Audio Coding 3
Commercial name                          : Dolby Digital
Codec ID                                 : A_AC3
Duration                                 : 1 h 37 min
Bit rate mode                            : Constant
Bit rate                                 : 640 kb/s
Channel(s)                               : 2 channels
Channel layout                           : L R
Sampling rate                            : 48.0 kHz
Frame rate                               : 31.250 FPS (1536 SPF)
Bit depth                                : 16 bits
Compression mode                         : Lossy
Stream size                              : 448 MiB (10%)
Language                                 : English
Service kind                             : Complete Main
Default                                  : Yes
Forced                                   : No

Menu
00:00:00.000                             : en:Chapter 01
00:08:29.676                             : en:Chapter 02
00:17:46.565                             : en:Chapter 03
00:25:10.592                             : en:Chapter 04
00:31:54.871                             : en:Chapter 05
00:42:07.942                             : en:Chapter 06
00:51:06.563                             : en:Chapter 07
00:59:05.083                             : en:Chapter 08
01:07:08.024                             : en:Chapter 09
01:15:12.091                             : en:Chapter 10
01:20:46.383                             : en:Chapter 11
01:30:13.533                             : en:Chapter 12




                                                                                                                                                                                                        
                                                                                                                                                                                                                                                                                                                                                                                                                                                                                                                                                                                                                                                                                                                                                                                                                                                        
428ec354b44db1f406dbf800243e47b2.torrent (44.59 KB, 下载次数: 0)

回复

使用道具 举报

小黑屋|百度云资源论坛 ( 闽ICP备16005822号-1 )

本网站所有资源来自网络,如无意中侵犯了您的权益,请发邮件至 [email protected],立即清除相关链接

GMT+8, 2019-8-26 16:22 , Processed in 0.067970 second(s), 19 queries .

Powered by Discuz! X3.2

© 2001-2013 Comsenz Inc.

快速回复 返回顶部 返回列表