百度云资源论坛

 找回密码
 立即注册
搜索
热搜: 百度云资源
开启左侧

洛城少女二十五岁 The.Young.Girls.Turn.25.1993.720p.BluRay.x264-BiPOLA...

[复制链接]
百度云资源 发表于 2019-8-7 07:41:56 | 显示全部楼层 |阅读模式
-->




帖子完整标题:洛城少女二十五岁 The.Young.Girls.Turn.25.1993.720p.BluRay.x264-BiPOLAR 2.65GB





◎译  名 洛城少女二十五岁 / The Young Girls Turn 25 / 洛城少女曾经二十五岁
◎片  名 Les Demoiselles Ont Eu 25 Ans
◎年  代 1993
◎产  地 法国
◎类  别 纪录片 / 音乐
◎语  言 法语
◎上映日期 1993-10
◎IMDb评分  7.1/10 from 215 users
◎片  长 64 分钟
◎导  演 Agnès Varda
◎编  剧 Agnès Varda
◎主  演 凯瑟琳·德纳芙 Catherine Deneuve
      阿涅斯·瓦尔达 Agnès Varda
      米歇尔·勒格朗 Michel Legrand
      雅克·贝汉 Jacques Perrin
      贝特朗·塔维涅 Bertrand Tavernier
      Mag Bodard
      Bernard Evein
      Jean-Louis Frot
      Pierre Beacousin
      乔治·查金思 George Chakiris
      达尼埃尔·达里约 Danielle Darrieux
      雅克·德米 Jacques Demy
      弗朗索瓦·朵列 Fran?oise Dorléac
      吉恩·凯利 Gene Kelly
      米歇尔·皮科利 Michel Piccoli
      雅克·里伯罗勒 Jacques Riberolles


◎标  签 法国 | 纪录片 | 阿涅斯·瓦尔达 | AgnèsVarda | 法国电影 | Agnès_Varda | 1990s | CatherineDeneuve

◎简  介  

  是一部关于Jacques Demy 的 洛城少女]》(Demoiselles de Rochefort,1966)的纪录片,片中混合了当初拍片的现场纪录和二十几年后Rochefort当地为影片庆生的实况。
In 1967, the phenomenally successful director of the films Lola and the groundbreaking musical Les Parapluies de Cherbourg, Jacques Demy, arrived in the little port town of Rochefort and, together with his art director, decorated the whole town in cheerful, almost surreal fashion for the filming of his next musical, Les Demoiselles de Rochefort. This enormously well-received film, packed with songs which became integral to French popular culture, put the little town of Rochefort "on the map." Twenty five years later, a lot of things have changed except for the fond memories of the people who worked on the film, and of the townspeople. In this celebratory documentary, Agnes Varda, the wife of Jacques Demy, brings some of the players and extras together back in Rochefort for some reminiscences. In keeping with the thoroughly romantic nature of the musical, she also tells the story of how Les Demoiselles de Rochefort's extras found romance and had their lives changed by participating in its making. The present-day story is highlighted by clips from the earlier film, and from a documentary of the period showing how it was made. ~ Clarke Fountain, All Movie Guide

Video
ID                                       : 1
Format                                   : AVC
Format/Info                              : Advanced Video Codec
Format settings                          : CABAC / 5 Ref Frames
Format settings, CABAC                   : Yes
Format settings, Reference frames        : 5 frames
Codec ID                                 : V_MPEG4/ISO/AVC
Duration                                 : 1 h 6 min
Bit rate                                 : 5 471 kb/s
Width                                    : 992 pixels
Height                                   : 720 pixels
Display aspect ratio                     : 1.378
Frame rate mode                          : Constant
Frame rate                               : 23.976 (24000/1001) FPS
Color space                              : YUV
Chroma subsampling                       : 4:2:0
Bit depth                                : 8 bits
Scan type                                : Progressive
Bits/(Pixel*Frame)                       : 0.319
Stream size                              : 2.56 GiB (97%)
Writing library                          : x264 core 157 r2969 d4099dd
Encoding settings                        : cabac=1 / ref=5 / deblock=1:-3:-3 / analyse=0x3:0x133 / me=umh / subme=9 / psy=1 / psy_rd=1.00:0.00 / mixed_ref=1 / me_range=16 / chroma_me=1 / trellis=2 / 8x8dct=1 / cqm=0 / deadzone=21,11 / fast_pskip=0 / chroma_qp_offset=-2 / threads=18 / lookahead_threads=1 / sliced_threads=0 / nr=0 / decimate=1 / interlaced=0 / bluray_compat=0 / constrained_intra=0 / bframes=3 / b_pyramid=2 / b_adapt=1 / b_bias=0 / direct=3 / weightb=1 / open_gop=0 / weightp=2 / keyint=240 / keyint_min=24 / scenecut=40 / intra_refresh=0 / rc_lookahead=50 / rc=2pass / mbtree=1 / bitrate=5471 / ratetol=1.0 / qcomp=0.60 / qpmin=0 / qpmax=69 / qpstep=4 / cplxblur=20.0 / qblur=0.5 / ip_ratio=1.40 / aq=1:1.00
Language                                 : English
Default                                  : Yes
Forced                                   : No

Audio
ID                                       : 2
Format                                   : AC-3
Format/Info                              : Audio Coding 3
Commercial name                          : Dolby Digital
Codec ID                                 : A_AC3
Duration                                 : 1 h 6 min
Bit rate mode                            : Constant
Bit rate                                 : 192 kb/s
Channel(s)                               : 1 channel
Channel layout                           : C
Sampling rate                            : 48.0 kHz
Frame rate                               : 31.250 FPS (1536 SPF)
Bit depth                                : 16 bits
Compression mode                         : Lossy
Stream size                              : 91.9 MiB (3%)
Language                                 : French
Service kind                             : Complete Main
Default                                  : Yes
Forced                                   : No

Text
ID                                       : 3
Format                                   : UTF-8
Codec ID                                 : S_TEXT/UTF8
Codec ID/Info                            : UTF-8 Plain Text
Duration                                 : 1 h 5 min
Bit rate                                 : 62 b/s
Count of elements                        : 815
Stream size                              : 29.8 KiB (0%)
Title                                    : English
Language                                 : English
Default                                  : Yes
Forced                                   : Yes

Menu
00:00:00.000                             : en:00:00:00.000
00:10:42.517                             : en:00:10:42.517
00:31:09.326                             : en:00:31:09.326
00:39:36.916                             : en:00:39:36.916
00:54:14.668                             : en:00:54:14.668




                                                                                                                                                                                                        
                                                                                                                                                                                                                                                                                                                                                                                                                                                                                                                                                                                                                                                                                                                                                                                                                                                        
8a7456a646f3a52b6106d9d3cf492863.torrent (27.14 KB, 下载次数: 0)

回复

使用道具 举报

小黑屋|百度云资源论坛 ( 闽ICP备16005822号-1 )

本网站所有资源来自网络,如无意中侵犯了您的权益,请发邮件至 [email protected],立即清除相关链接

GMT+8, 2019-8-26 16:26 , Processed in 0.062942 second(s), 19 queries .

Powered by Discuz! X3.2

© 2001-2013 Comsenz Inc.

快速回复 返回顶部 返回列表