百度云资源论坛

 找回密码
 立即注册
搜索
热搜: 百度云资源
开启左侧

永远的莫扎特 For.Ever.Mozart.1996.720p.BluRay.x264-BiPOLAR 4.37GB

[复制链接]
百度云资源 发表于 2019-8-7 07:41:59 | 显示全部楼层 |阅读模式
-->




帖子完整标题:永远的莫扎特 For.Ever.Mozart.1996.720p.BluRay.x264-BiPOLAR 4.37GB





◎译  名 永远的莫扎特
◎片  名 For Ever Mozart
◎年  代 1996
◎产  地 法国 / 瑞士
◎类  别 剧情 / 喜剧 / 战争
◎语  言 法语
◎上映日期 1996-11-27
◎IMDb评分  6.5/10 from 759 users
◎片  长 84 分钟
◎导  演 Jean-Luc Godard
◎编  剧 Jean-Luc Godard
◎主  演 Madeleine Assas
      Ghalia Lacroix
      Bérangère Allaux
      Frédéric Pierrot


◎标  签 法国 | 戈达尔 | JeanLucGodard | 法国电影 | 1996 | Jean-Luc_Godard | 新浪潮 | 音乐

◎简  介  

  影片将快节奏的智力综合表演,优美的哲学沉思以及在连珠炮弹的话语引用和战争场面中的爆发时刻天衣无缝地串联在一起,呈现出一幅色彩班驳的抽象派社会写生画。
戈达尔对当代国际政治热点与文化、艺术关系都有着深刻思考。正是由于这种思考,才有了《永远的莫扎特》一片的问世。
本片有两个故事线索:一伙年轻人一起去萨拉热窝旅行,在那里,他们计划参与一场戏剧的演出;与此同时,一名衰老的电影制作人渴望导演一部大制作电影,他满怀希望去了好莱坞。
通过通俗易懂的故事情节,这部电影毫不掩饰的表达了戈达尔对前南斯拉夫内战的厌恶,并一再的强调了他对西方强权政治的批判立场。而且,戈达尔认为强权政治不仅毁掉人们的生命,更是文化艺术的刽子手,在强权政治的把持下,电影,乃至其他人类文化都陷入了难以抽身的殖民文化泥潭中无法自拔。

◎获奖情况  

  第53届威尼斯电影节(1996)
  主竞赛单元 金狮奖 (提名) 让-吕克·戈达尔



Video
ID                                       : 1
Format                                   : AVC
Format/Info                              : Advanced Video Codec
Format settings                          : CABAC / 5 Ref Frames
Format settings, CABAC                   : Yes
Format settings, Reference frames        : 5 frames
Codec ID                                 : V_MPEG4/ISO/AVC
Duration                                 : 1 h 25 min
Bit rate                                 : 5 905 kb/s
Width                                    : 960 pixels
Height                                   : 720 pixels
Display aspect ratio                     : 4:3
Frame rate mode                          : Constant
Frame rate                               : 23.976 (24000/1001) FPS
Color space                              : YUV
Chroma subsampling                       : 4:2:0
Bit depth                                : 8 bits
Scan type                                : Progressive
Bits/(Pixel*Frame)                       : 0.356
Stream size                              : 3.53 GiB (81%)
Writing library                          : x264 core 157 r2969 d4099dd
Encoding settings                        : cabac=1 / ref=5 / deblock=1:-3:-3 / analyse=0x3:0x133 / me=umh / subme=9 / psy=1 / psy_rd=1.00:0.00 / mixed_ref=1 / me_range=16 / chroma_me=1 / trellis=2 / 8x8dct=1 / cqm=0 / deadzone=21,11 / fast_pskip=0 / chroma_qp_offset=-2 / threads=18 / lookahead_threads=1 / sliced_threads=0 / nr=0 / decimate=1 / interlaced=0 / bluray_compat=0 / constrained_intra=0 / bframes=3 / b_pyramid=2 / b_adapt=1 / b_bias=0 / direct=3 / weightb=1 / open_gop=0 / weightp=2 / keyint=240 / keyint_min=24 / scenecut=40 / intra_refresh=0 / rc_lookahead=50 / rc=2pass / mbtree=1 / bitrate=5905 / ratetol=1.0 / qcomp=0.60 / qpmin=0 / qpmax=69 / qpstep=4 / cplxblur=20.0 / qblur=0.5 / ip_ratio=1.40 / aq=1:1.00
Language                                 : English
Default                                  : Yes
Forced                                   : No

Audio
ID                                       : 2
Format                                   : FLAC
Format/Info                              : Free Lossless Audio Codec
Codec ID                                 : A_FLAC
Duration                                 : 1 h 25 min
Bit rate mode                            : Variable
Bit rate                                 : 1 400 kb/s
Channel(s)                               : 2 channels
Channel layout                           : L R
Sampling rate                            : 48.0 kHz
Frame rate                               : 11.719 FPS (4096 SPF)
Bit depth                                : 24 bits
Compression mode                         : Lossless
Stream size                              : 858 MiB (19%)
Writing library                          : libFLAC 1.2.1 (UTC 2007-09-17)
Language                                 : French
Default                                  : Yes
Forced                                   : No

Text
ID                                       : 3
Format                                   : UTF-8
Codec ID                                 : S_TEXT/UTF8
Codec ID/Info                            : UTF-8 Plain Text
Duration                                 : 1 h 20 min
Bit rate                                 : 31 b/s
Count of elements                        : 699
Stream size                              : 18.7 KiB (0%)
Title                                    : English
Language                                 : English
Default                                  : Yes
Forced                                   : Yes

Menu
00:00:00.000                             : en:00:00:00.000
00:11:21.180                             : en:00:11:21.180
00:21:13.063                             : en:00:21:13.063
00:33:28.465                             : en:00:33:28.465
00:44:27.373                             : en:00:44:27.373
00:53:10.896                             : en:00:53:10.896
01:05:08.822                             : en:01:05:08.822
01:14:25.252                             : en:01:14:25.252




                                                                                                                                                                                                        
                                                                                                                                                                                                                                                                                                                                                                                                                                                                                                                                                                                                                                                                                                                                                                                                                                                        
ffb2564094aa83cb146f9e616317b3b1.torrent (44.34 KB, 下载次数: 0)

回复

使用道具 举报

小黑屋|百度云资源论坛 ( 闽ICP备16005822号-1 )

本网站所有资源来自网络,如无意中侵犯了您的权益,请发邮件至 [email protected],立即清除相关链接

GMT+8, 2019-8-26 16:25 , Processed in 0.059898 second(s), 19 queries .

Powered by Discuz! X3.2

© 2001-2013 Comsenz Inc.

快速回复 返回顶部 返回列表