百度云资源论坛

 找回密码
 立即注册
搜索
热搜: 百度云资源
开启左侧

托尔金 Tolkien.2019.720p.BluRay.X264-AMIABLE 4.39GB

[复制链接]
百度云资源 发表于 2019-8-8 07:31:42 | 显示全部楼层 |阅读模式




帖子完整标题:托尔金 Tolkien.2019.720p.BluRay.X264-AMIABLE 4.39GB





◎译  名 托尔金 / A Light in the Darkness / J.R.R. Tolkien
◎片  名 Tolkien
◎年  代 2019
◎产  地 美国
◎类  别 剧情 / 传记
◎语  言 英语
◎上映日期 2019-05-03(英国) / 2019-05-10(美国)
◎IMDb评分  7.0/10 from 5529 users
◎片  长 112分钟
◎导  演 多姆·卡如库斯基 Dome Karukoski
◎编  剧 大卫·格里森 David Gleeson / 史蒂文·贝雷斯福德 Stephen Beresford
◎主  演 尼古拉斯·霍尔特 Nicholas Hoult
      莉莉·柯林斯 Lily Collins
      吉娜薇·欧瑞丽 Genevieve O'Reilly
      帕姆·费里斯 Pam Ferris
      米米·基恩 Mimi Keene
      科尔姆·米尼 Colm Meaney
      德里克·雅各比 Derek Jacobi
      克雷格·罗伯兹 Craig Roberts
      帕特里克·吉布森 Patrick Gibson
      劳拉·唐奈里 Laura Donnelly
      安东尼·鲍伊 Anthony Boyle
      汤姆·格林-卡尼 Tom Glynn-Carney
      哈利·基尔比 Harry Gilby
      康纳·沃尔夫 Connor Wolf
      大卫·普克里奇 David Puckridge


◎标  签 传记 | 托尔金 | 2019 | 美国 | 纪录片 | 剧情 | 英国 | 魔戒

◎简  介  

  芬兰导演多姆·卡如库斯基将执导J·R·R·托尔金传记片。2013年福斯探照灯便准备拍摄此片,定下编剧大卫·格里森、史蒂文·贝雷斯福德。故事聚焦一战爆发前托尔金的友情、爱情世界。及如何开启他未来的文学创作之路。

Video
ID                                       : 1
Format                                   : AVC
Format/Info                              : Advanced Video Codec
Format settings                          : CABAC / 5 Ref Frames
Format settings, CABAC                   : Yes
Format settings, Reference frames        : 5 frames
Codec ID                                 : V_MPEG4/ISO/AVC
Duration                                 : 1 h 51 min
Bit rate                                 : 4 091 kb/s
Width                                    : 1 280 pixels
Height                                   : 536 pixels
Display aspect ratio                     : 2.40:1
Frame rate mode                          : Constant
Frame rate                               : 23.976 (24000/1001) FPS
Color space                              : YUV
Chroma subsampling                       : 4:2:0
Bit depth                                : 8 bits
Scan type                                : Progressive
Bits/(Pixel*Frame)                       : 0.249
Stream size                              : 3.11 GiB (71%)
Writing library                          : x264 core 158 r2984 3759fcb
Encoding settings                        : cabac=1 / ref=5 / deblock=1:-3:-3 / analyse=0x3:0x113 / me=umh / subme=8 / psy=1 / psy_rd=1.00:0.00 / mixed_ref=1 / me_range=24 / chroma_me=1 / trellis=2 / 8x8dct=1 / cqm=0 / deadzone=21,11 / fast_pskip=1 / chroma_qp_offset=-2 / threads=17 / lookahead_threads=2 / sliced_threads=0 / nr=0 / decimate=1 / interlaced=0 / bluray_compat=0 / constrained_intra=0 / bframes=3 / b_pyramid=2 / b_adapt=2 / b_bias=0 / direct=3 / weightb=1 / open_gop=0 / weightp=2 / keyint=240 / keyint_min=24 / scenecut=40 / intra_refresh=0 / rc_lookahead=50 / rc=2pass / mbtree=1 / bitrate=4091 / ratetol=1.0 / qcomp=0.60 / qpmin=0 / qpmax=69 / qpstep=4 / cplxblur=20.0 / qblur=0.5 / ip_ratio=1.40 / aq=3:0.80
Default                                  : Yes
Forced                                   : No
Statistics Tags Issue                    : no_variable_data 1970-01-01 00:00:00 / no_variable_data 2010-02-22 21:41:29
FromStats_BitRate                        : 4090923
FromStats_Duration                       : 01:51:42.112000000
FromStats_FrameCount                     : 160690
FromStats_StreamSize                     : 3427228598

Audio
ID                                       : 2
Format                                   : DTS
Format/Info                              : Digital Theater Systems
Codec ID                                 : A_DTS
Duration                                 : 1 h 51 min
Bit rate mode                            : Constant
Bit rate                                 : 1 509 kb/s
Channel(s)                               : 6 channels
Channel layout                           : C L R Ls Rs LFE
Sampling rate                            : 48.0 kHz
Frame rate                               : 93.750 FPS (512 SPF)
Bit depth                                : 24 bits
Compression mode                         : Lossy
Stream size                              : 1.18 GiB (27%)
Language                                 : English
Default                                  : Yes
Forced                                   : No
Statistics Tags Issue                    : no_variable_data 1970-01-01 00:00:00 / no_variable_data 2010-02-22 21:41:29
FromStats_BitRate                        : 1508999
FromStats_Duration                       : 01:51:42.123000000
FromStats_FrameCount                     : 628324
FromStats_StreamSize                     : 1264187888

Text #1
ID                                       : 3
Format                                   : UTF-8
Codec ID                                 : S_TEXT/UTF8
Codec ID/Info                            : UTF-8 Plain Text
Language                                 : English
Default                                  : No
Forced                                   : No
Statistics Tags Issue                    : no_variable_data 1970-01-01 00:00:00 / no_variable_data 2010-02-22 21:41:29
FromStats_BitRate                        : 59
FromStats_Duration                       : 01:43:08.849000000
FromStats_FrameCount                     : 1592
FromStats_StreamSize                     : 46225

Text #2
ID                                       : 4
Format                                   : UTF-8
Codec ID                                 : S_TEXT/UTF8
Codec ID/Info                            : UTF-8 Plain Text
Title                                    : SDH
Language                                 : English
Default                                  : No
Forced                                   : No
Statistics Tags Issue                    : no_variable_data 1970-01-01 00:00:00 / no_variable_data 2010-02-22 21:41:29
FromStats_BitRate                        : 67
FromStats_Duration                       : 01:44:21.463000000
FromStats_FrameCount                     : 1757
FromStats_StreamSize                     : 52751

Menu
00:00:00.000                             : en:Chapter 01
00:06:27.137                             : en:Chapter 02
00:11:09.419                             : en:Chapter 03
00:15:51.117                             : en:Chapter 04
00:21:00.885                             : en:Chapter 05
00:25:53.802                             : en:Chapter 06
00:34:35.031                             : en:Chapter 07
00:37:46.639                             : en:Chapter 08
00:42:01.227                             : en:Chapter 09
00:44:44.098                             : en:Chapter 10
00:47:39.774                             : en:Chapter 11
00:52:04.955                             : en:Chapter 12
00:57:06.423                             : en:Chapter 13
00:59:59.971                             : en:Chapter 14
01:04:39.334                             : en:Chapter 15
01:08:09.002                             : en:Chapter 16
01:11:17.398                             : en:Chapter 17
01:14:29.090                             : en:Chapter 18
01:19:45.656                             : en:Chapter 19
01:26:09.539                             : en:Chapter 20
01:32:11.985                             : en:Chapter 21
01:35:52.497                             : en:Chapter 22
01:40:05.666                             : en:Chapter 23
01:45:06.091                             : en:Chapter 24




                                                                                                                                                                                                        
                                                                                                                                                                                                                                                                                                                                                                                                                                                                                                                                                                                                                                                                                                                                                                                                                                                        
7706c46e4161734def8c91361e38d915.torrent (44.71 KB, 下载次数: 0)

回复

使用道具 举报

小黑屋|百度云资源论坛 ( 闽ICP备16005822号-1 )

本网站所有资源来自网络,如无意中侵犯了您的权益,请发邮件至 [email protected],立即清除相关链接

GMT+8, 2019-8-26 16:26 , Processed in 0.061060 second(s), 19 queries .

Powered by Discuz! X3.2

© 2001-2013 Comsenz Inc.

快速回复 返回顶部 返回列表