百度云资源论坛

 找回密码
 立即注册
搜索
热搜: 百度云资源
开启左侧

结伴婚礼/加一 Plus.One.2019.720p.BluRay.x264-ROVERS 4.38GB

[复制链接]
百度云资源 发表于 2019-8-8 07:31:44 | 显示全部楼层 |阅读模式





帖子完整标题:结伴婚礼/加一 Plus.One.2019.720p.BluRay.x264-ROVERS 4.38GB





◎译  名 结伴婚礼 / 加一
◎片  名 Plus One
◎年  代 2019
◎产  地 美国
◎类  别 剧情 / 喜剧 / 爱情
◎语  言 英语
◎上映日期 2019-06-14(美国)
◎IMDb评分  8.3/10 from 32 users
◎导  演 Jeff Chan / Andrew Rhymer
◎编  剧 Jeff Chan / Andrew Rhymer
◎主  演 玛雅·厄斯金 Maya Erskine
      杰克·奎德 Jack Quaid
      小艾德·博格里 Ed Begley Jr.
      芬·维特洛克 Finn Wittrock
      Betsy Sodaro
      杰夫·沃德 Jeff Ward


◎标  签 美国 | 电影 | 喜剧

◎简  介  

  劳模将饰演瑞秋,一个刚结束多年恋情的女人,眼见昔日好友已纷纷成家,新晋单身的她只好求助粗鲁却“懂行”的萨莫为她寻找如意郎君,截然不同的两人凑到一起自然笑料百出。

Video
ID                                       : 1
Format                                   : AVC
Format/Info                              : Advanced Video Codec
Format settings                          : CABAC / 5 Ref Frames
Format settings, CABAC                   : Yes
Format settings, Reference frames        : 5 frames
Codec ID                                 : V_MPEG4/ISO/AVC
Duration                                 : 1 h 38 min
Bit rate                                 : 4 840 kb/s
Width                                    : 1 280 pixels
Height                                   : 536 pixels
Display aspect ratio                     : 2.40:1
Frame rate mode                          : Constant
Frame rate                               : 23.976 (24000/1001) FPS
Color space                              : YUV
Chroma subsampling                       : 4:2:0
Bit depth                                : 8 bits
Scan type                                : Progressive
Bits/(Pixel*Frame)                       : 0.294
Stream size                              : 3.33 GiB (76%)
Writing library                          : x264 core 158 r2984 3759fcb
Encoding settings                        : cabac=1 / ref=5 / deblock=1:-3:-3 / analyse=0x3:0x113 / me=umh / subme=8 / psy=1 / psy_rd=1.00:0.00 / mixed_ref=1 / me_range=16 / chroma_me=1 / trellis=1 / 8x8dct=1 / cqm=0 / deadzone=21,11 / fast_pskip=1 / chroma_qp_offset=-2 / threads=17 / lookahead_threads=2 / sliced_threads=0 / nr=0 / decimate=1 / interlaced=0 / bluray_compat=0 / constrained_intra=0 / bframes=3 / b_pyramid=2 / b_adapt=1 / b_bias=0 / direct=3 / weightb=1 / open_gop=0 / weightp=2 / keyint=250 / keyint_min=23 / scenecut=40 / intra_refresh=0 / rc_lookahead=50 / rc=2pass / mbtree=1 / bitrate=4840 / ratetol=1.0 / qcomp=0.60 / qpmin=0 / qpmax=69 / qpstep=4 / cplxblur=20.0 / qblur=0.5 / ip_ratio=1.40 / aq=1:1.00
Language                                 : English
Default                                  : Yes
Forced                                   : No

Audio
ID                                       : 2
Format                                   : DTS
Format/Info                              : Digital Theater Systems
Codec ID                                 : A_DTS
Duration                                 : 1 h 38 min
Bit rate mode                            : Constant
Bit rate                                 : 1 509 kb/s
Channel(s)                               : 6 channels
Channel layout                           : C L R Ls Rs LFE
Sampling rate                            : 48.0 kHz
Frame rate                               : 93.750 FPS (512 SPF)
Bit depth                                : 24 bits
Compression mode                         : Lossy
Stream size                              : 1.04 GiB (24%)
Language                                 : English
Default                                  : Yes
Forced                                   : No




                                                                                                                                                                                                        
                                                                                                                                                                                                                                                                                                                                                                                                                                                                                                                                                                                                                                                                                                                                                                                                                                                        
03e51b1361a9127adffcc57269f197d3.torrent (44.59 KB, 下载次数: 0)

回复

使用道具 举报

小黑屋|百度云资源论坛 ( 闽ICP备16005822号-1 )

本网站所有资源来自网络,如无意中侵犯了您的权益,请发邮件至 [email protected],立即清除相关链接

GMT+8, 2019-8-26 16:22 , Processed in 0.061010 second(s), 19 queries .

Powered by Discuz! X3.2

© 2001-2013 Comsenz Inc.

快速回复 返回顶部 返回列表