百度云资源论坛

 找回密码
 立即注册
搜索
热搜: 百度云资源
开启左侧

阿丽塔:战斗天使/艾莉塔:战斗天使 Alita.Battle.Angel.3D.2019.1080...

[复制链接]
百度云资源 发表于 2019-8-8 07:34:04 | 显示全部楼层 |阅读模式





帖子完整标题:阿丽塔:战斗天使/艾莉塔:战斗天使 Alita.Battle.Angel.3D.2019.1080p.BluRay.x264-JustWatch 9.83GB





◎译  名 阿丽塔:战斗天使 / 艾莉塔:战斗天使(台) / 铳梦 / 铳梦:战斗天使(港)
◎片  名 Alita: Battle Angel
◎年  代 2019
◎产  地 美国 / 加拿大 / 阿根廷
◎类  别 动作 / 科幻 / 冒险
◎语  言 英语 / 西班牙语
◎上映日期 2019-02-05(台湾) / 2019-02-14(美国) / 2019-02-22(中国大陆)
◎IMDb评分  7.5/10 from 102771 users
◎导  演 罗伯特·罗德里格兹 Robert Rodriguez
◎编  剧 詹姆斯·卡梅隆 James Cameron / 莱塔·卡罗格里迪斯 Laeta Kalogridis / 木城幸人 Yukito Kishiro
◎主  演 罗莎·萨拉查 Rosa Salazar
      克里斯托弗·沃尔兹 Christoph Waltz
      基恩·约翰逊 Keean Johnson
      艾德·斯克林 Ed Skrein
      马赫沙拉·阿里 Mahershala Ali
      詹妮弗·康纳利 Jennifer Connelly
      杰基·厄尔·哈利 Jackie Earle Haley
      陈东兰 Lana Condor
      小豪尔赫·兰登伯格 Jorge Lendeborg Jr.
      艾莎·冈萨雷斯 Eiza González
      卡斯帕·凡·迪恩 Casper Van Dien
      米歇尔·罗德里格兹 Michelle Rodriguez
      爱德华·诺顿 Edward Norton
      杰夫·法赫 Jeff Fahey
      山姆·麦地那 Sam Medina
      德里克·梅耶斯 Derek Mears
      艾丽·拉蒙特 Elle LaMont
      豪尔赫·A·希门尼斯 Jorge A. Jimenez
      马克·扎罗 Marko Zaror
      比利·布莱尔 Billy Blair
      伦纳德·吴 Leonard Wu
      特里斯坦·里格斯 Tristan Riggs
      迈克尔·洛夫·托利弗 Michael Love Toliver
      金 King
      达塞尔·丹妮尔 Darcel Danielle
      Mark A. White


◎标  签 科幻 | 机器人 | 动作 | 漫画改编 | 美国 | 赛博朋克 | 2019 | 动画

◎简  介  

  故事发生在遥远的26世纪,外科医生依德(克里斯托弗·瓦尔兹 Christoph Waltz 饰)在垃圾场里捡到了只剩下头部的机械少女将她带回家中,给她装上了本来为自己已故的女儿所准备的义体,并取名阿丽塔(罗莎·萨拉扎尔 Rosa Salazar 饰)。苏醒后的阿丽塔对这个五彩斑斓但却暴力而又残酷的世界产生了浓厚的兴趣,在结识了青年雨果(基恩·约翰逊 Keean Johnson 饰)后,阿丽塔开始接触名为机动球的运动,并在比赛中展现出了惊人的格斗天赋。
在废铁城居民们的头顶,漂浮着巨大的浮空城市撒冷,废铁城居民们的一切劳作和付出,都是为了给撒冷提供继续运作的燃料。在大财阀维克特(马赫沙拉·阿里 Mahershala Ali 饰)所设立的机动球比赛中,最终获得冠军的人能够获得前往撒冷生活的资格,阿丽塔决定利用自己的格斗天赋参加比赛,却被卷入了一个巨大的阴谋之中。

◎获奖情况  

  第5届豆瓣电影年度榜单(2018)
  最值得期待的外语电影(提名)

  第4届豆瓣电影年度榜单(2017)
  最值得期待的外语电影(提名)



Video
ID                                       : 1
Format                                   : AVC
Format/Info                              : Advanced Video Codec
MultiView_Count                          : 2
MultiView_Layout                         : Side by Side (left eye first)
Format settings                          : CABAC / 5 Ref Frames
Format settings, CABAC                   : Yes
Format settings, Reference frames        : 5 frames
Codec ID                                 : V_MPEG4/ISO/AVC
Duration                                 : 2 h 1 min
Bit rate                                 : 10.0 Mb/s
Width                                    : 1 920 pixels
Height                                   : 808 pixels
Display aspect ratio                     : 2.40:1
Frame rate mode                          : Constant
Frame rate                               : 23.976 FPS
Color space                              : YUV
Chroma subsampling                       : 4:2:0
Bit depth                                : 8 bits
Scan type                                : Progressive
Bits/(Pixel*Frame)                       : 0.270
Stream size                              : 8.55 GiB (87%)
Writing library                          : x264 core 157 r2969 d4099dd
Encoding settings                        : cabac=1 / ref=5 / deblock=1:-3:-3 / analyse=0x3:0x133 / me=umh / subme=8 / psy=1 / psy_rd=1.00:0.15 / mixed_ref=1 / me_range=16 / chroma_me=1 / trellis=1 / 8x8dct=1 / cqm=0 / deadzone=21,11 / fast_pskip=0 / chroma_qp_offset=-3 / threads=12 / lookahead_threads=2 / sliced_threads=0 / nr=0 / decimate=1 / interlaced=0 / bluray_compat=0 / constrained_intra=0 / bframes=3 / b_pyramid=2 / b_adapt=2 / b_bias=0 / direct=3 / weightb=1 / open_gop=0 / weightp=2 / keyint=240 / keyint_min=24 / scenecut=40 / intra_refresh=0 / rc_lookahead=50 / rc=2pass / mbtree=1 / bitrate=10033 / ratetol=1.0 / qcomp=0.60 / qpmin=0 / qpmax=69 / qpstep=4 / cplxblur=20.0 / qblur=0.5 / ip_ratio=1.40 / aq=1:1.00
Language                                 : English
Default                                  : Yes
Forced                                   : No

Audio
ID                                       : 2
Format                                   : DTS ES
Format/Info                              : Digital Theater Systems
Commercial name                          : DTS-ES Matrix
Codec ID                                 : A_DTS
Duration                                 : 2 h 1 min
Bit rate mode                            : Constant
Bit rate                                 : 1 509 kb/s
Channel(s)                               : 6 channels
Channel(s)_Original                      : 7 channels
Channel layout                           : C L R Ls Rs Cb LFE
Sampling rate                            : 48.0 kHz
Frame rate                               : 93.750 FPS (512 SPF)
Bit depth                                : 24 bits
Compression mode                         : Lossy
Stream size                              : 1.29 GiB (13%)
Language                                 : English
Default                                  : Yes
Forced                                   : No

Menu
00:00:00.000                             : :Kapitel 01
00:03:28.625                             : :Kapitel 02
00:07:51.679                             : :Kapitel 03
00:10:07.982                             : :Kapitel 04
00:13:06.702                             : :Kapitel 05
00:15:06.739                             : :Kapitel 06
00:18:04.541                             : :Kapitel 07
00:22:58.710                             : :Kapitel 08
00:25:35.325                             : :Kapitel 09
00:31:40.898                             : :Kapitel 10
00:33:29.215                             : :Kapitel 11
00:36:32.815                             : :Kapitel 12
00:38:30.891                             : :Kapitel 13
00:42:05.481                             : :Kapitel 14
00:45:58.213                             : :Kapitel 15
00:48:31.450                             : :Kapitel 16
00:52:57.007                             : :Kapitel 17
00:55:14.352                             : :Kapitel 18
01:00:39.761                             : :Kapitel 19
01:02:56.564                             : :Kapitel 20
01:05:16.787                             : :Kapitel 21
01:10:50.496                             : :Kapitel 22
01:13:37.287                             : :Kapitel 23
01:16:35.215                             : :Kapitel 24
01:18:52.227                             : :Kapitel 25
01:22:48.296                             : :Kapitel 26
01:24:55.340                             : :Kapitel 27
01:28:25.216                             : :Kapitel 28
01:33:18.551                             : :Kapitel 29
01:36:08.762                             : :Kapitel 30
01:41:54.691                             : :Kapitel 31
01:45:23.442                             : :Kapitel 32
01:48:16.489                             : :Kapitel 33
01:51:43.655                             : :Kapitel 34
01:54:43.668                             : :Kapitel 35
01:56:51.504                             : :Kapitel 36




                                                                                                                                                                                                        
                                                                                                                                                                                                                                                                                                                                                                                                                                                                                                                                                                                                                                                                                                                                                                                                                                                        
8e61ab69ab0ce771cb7c7ca315662706.torrent (49.92 KB, 下载次数: 0)

回复

使用道具 举报

小黑屋|百度云资源论坛 ( 闽ICP备16005822号-1 )

本网站所有资源来自网络,如无意中侵犯了您的权益,请发邮件至 [email protected],立即清除相关链接

GMT+8, 2019-10-22 20:37 , Processed in 0.056442 second(s), 18 queries .

Powered by Discuz! X3.4

© 2001-2017 Comsenz Inc.

快速回复 返回顶部 返回列表