百度云资源论坛

 找回密码
 立即注册
搜索
热搜: 百度云资源
开启左侧

[BT下载]绿毛怪格林奇[3D左右]2018.1080p.3D.BluRay.Half-SBS.x264.DTS-...

[复制链接]
百度云资源 发表于 2019-8-8 07:34:33 | 显示全部楼层 |阅读模式

译  名 绿毛怪格林奇 / Dr. Seuss’ The Grinch / Dr. Suess‘ How the Grinch Stole Christmas / 圣诞怪怪杰(港) / 圣诞怪杰 / 苏斯博士的圣诞怪杰 / 鬼灵精(台)
片  名 The Grinch
年  代 2018
产  地 法国 / 中国大陆 / 日本 / 美国
类  别 喜剧 / 动画 / 奇幻
语  言 英语
上映日期 2018-11-09(美国) / 2018-12-14(中国大陆)
IMDb评分 6.4/10 from 18555 users
片  长 90分钟
导  演 亚罗·切尼 Yarrow Cheney / 斯科特·摩西尔 Scott Mosier
编  剧 迈克尔·勒西厄尔 Michael LeSieur / 汤米·斯威德洛 Tommy Swerdlow / 苏斯博士 Dr. Seuss
主  演 本尼迪克特·康伯巴奇 Benedict Cumberbatch
      卡梅伦·丝蕾 Cameron Seely
      拉什达·琼斯 Rashida Jones
      法瑞尔·威廉姆斯 Pharrell Williams
      特里斯坦·奥哈尔 Tristan O'Hare
      基南·汤普森 Kenan Thompson
      山姆·拉瓦尼诺 Sam Lavagnino
      雷蒙·汉密尔顿 Ramone Hamilton
      安吉拉·兰斯伯瑞 Angela Lansbury
      斯嘉丽·艾斯特维兹 Scarlett Estevez
      迈克尔·贝亚蒂 Michael Beattie
      罗里·艾伦 Lori Alan
      卡特·海斯汀斯 Carter Hastings
      卡洛斯·阿拉斯拉奇 Carlos Alazraqui
      约翰·卡西尔 John Kassir
      凯茜·卡瓦蒂妮 Cathy Cavadini
      丹尼·曼恩 Danny Mann
      杰里米·马克斯韦尔 Jeremy Maxwell
      汤森·科尔曼 Townsend Coleman
      斯科特·摩西尔 Scott Mosier
      梅里·康德伦 Meilee Condron
      拉瑞恩·纽曼 Laraine Newman
      布莱恩·T·德莱尼 Brian T. Delaney
      约翰·德米塔 John DeMita
      比尔·法玛尔 Bill Farmer
      乔尔·斯维唐 Joel Swetow
      亚伦·福尔斯 Aaron Fors
      明迪·斯特林 Mindy Sterling
      塔拉·斯特朗 Tara Strong
      杰斯·哈梅尔 Jess Harnell
      雷吉纳·托芬 Regina Taufen
      吉姆·瓦德 Jim Ward




标  签 动画 | 美国 | 喜剧 | 2018 | 圣诞 | 童话改编 | 奇幻 | 圣诞片


简  介  


  《圣诞怪杰》根据“苏斯博士”(Dr. Seuss)的著名畅销童书改编,故事主角是一个绿色的怪物格林奇(Grinch),他非常非常痛恨圣诞节,因为他是一个孤儿。为了不让人们过圣诞,他把所有圣诞礼物都偷走了。最后还是一个纯真的小女孩融化了他冷漠的心。


获奖情况  


  第46届动画安妮奖(2019)
  最佳配乐(提名)
  最佳剪辑(提名)
  最佳分镜(提名)


  第30届美国制片人工会奖(2019)
  最佳动画片制片人奖(提名)


  第23届美国艺术指导工会奖(2019)
  电影奖 最佳动画电影艺术指导(提名) Colin Stimpson


  第66届美国音效剪辑协会奖(2019)
  金卷轴奖 最佳动画片音效剪辑(提名)


  第17届美国视觉效果协会奖(2019)
  最佳动画电影视觉效果(提名)
  最佳动画电影CG动画角色(提名)
  最佳动画电影CG背景(提名)
  最佳动画电影模拟动画效果(提名)


  第55届美国声音效果协会奖(2019)
  动画电影最佳音效(提名)


  第24届美国评论家选择电影奖(2019)
  最佳动画片(提名)


Video
ID : 1
Format : AVC
Format/Info : Advanced Video Codec
Format profile : Hig4.1
Format settings : CABAC / 3 Ref Frames
Format settings, CABAC : Yes
Format settings, ReFrames : 3 frames
Codec ID : V_MPEG4/ISO/AVC
Duration : 1 h 25 min
Bit rate : 15.5 Mb/s
Width : 1 920 pixels
Height : 1 080 pixels
Display aspect ratio : 16:9
Frame rate mode : Constant
Frame rate : 23.976 (24000/1001) FPS
Color space : YUV
Chroma subsampling : 4:2:0
Bit depth : 8 bits
Scan type : Progressive
Bits/(Pixel*Frame) : 0.312
Stream size : 9.23 GiB (72%)
Title : The.Grinch.2018.1080p.3D.BluRay.Half-SBS.x264.DTS-HD.MA.7.1-FGT
Writing library : x264 core 148
Encoding settings : cabac=1 / ref=3 / deblock=1:-1:-1 / analyse=0x3:0 / me=hex / subme=5 / psy=1 / psy_rd=1.00:0.00 / mixed_ref=0 / me_range=16 / chroma_me=1 / trellis=1 / 8x8dct=1 / cqm=0 / deadzone=21,11 / fast_pskip=0 / chroma_qp_offset=0 / threads=24 / lookahead_threads=6 / sliced_threads=0 / nr=0 / decimate=1 / interlaced=0 / bluray_compat=0 / constrained_intra=0 / bframes=2 / b_pyramid=0 / b_adapt=1 / b_bias=0 / direct=1 / weightb=0 / open_gop=0 / weightp=0 / keyint=24 / keyint_min=2 / scenecut=40 / intra_refresh=0 / rc=abr / mbtree=0 / bitrate=15500 / ratetol=1.0 / qcomp=0.60 / qpmin=0 / qpmax=69 / qpstep=4 / ip_ratio=1.40 / pb_ratio=1.30 / aq=1:1.00
Default : Yes
Forced : No
Color range : Limited
Color primaries : BT.709
Transfer characteristics : BT.709
Matrix coefficients : BT.709

Audio #1
ID : 2
Format : DTS XLL
Format/Info : Digital Theater Systems
Commercial name : DTS-HD Master Audio
Codec ID : A_DTS
Duration : 1 h 25 min
Bit rate mode : Variable
Bit rate : 3 901 kb/s
Channel(s) : 8 channels
Channel layout : C L R LFE Lb Rb Lss Rss
Sampling rate : 48.0 kHz
Frame rate : 93.750 FPS (512 SPF)
Bit depth : 24 bits
Compression mode : Lossless
Stream size : 2.34 GiB (18%)
Title : The.Grinch.2018.1080p.3D.BluRay.Half-SBS.x264.DTS-HD.MA.7.1-FGT
Language : English
Default : Yes
Forced : No

Audio #2
ID : 3
Format : AC-3
Format/Info : Audio Coding 3
Commercial name : Dolby Digital
Codec ID : A_AC3
Duration : 1 h 25 min
Bit rate mode : Constant
Bit rate : 640 kb/s
Channel(s) : 6 channels
Channel layout : L R C LFE Ls Rs
Sampling rate : 48.0 kHz
Frame rate : 31.250 FPS (1536 SPF)
Bit depth : 16 bits
Compression mode : Lossy
Stream size : 393 MiB (3%)
Title : The.Grinch.2018.1080p.3D.BluRay.Half-SBS.x264.DTS-HD.MA.7.1-FGT
Language : Spanish
Service kind : Complete Main
Default : No
Forced : No

Audio #3
ID : 4
Format : E-AC-3
Format/Info : Enhanced AC-3
Commercial name : Dolby Digital Plus
Format profile : Blu-ray Disc
Codec ID : A_EAC3
Duration : 1 h 25 min
Bit rate mode : Constant
Bit rate : 768 kb/s
Channel(s) : 8 channels
Channel layout : L R C LFE Ls Rs Lb Rb
Sampling rate : 48.0 kHz
Frame rate : 31.250 FPS (1536 SPF)
Compression mode : Lossy
Stream size : 471 MiB (4%)
Title : The.Grinch.2018.1080p.3D.BluRay.Half-SBS.x264.DTS-HD.MA.7.1-FGT
Language : French
Service kind : Complete Main
Default : No
Forced : No

Audio #4
ID : 5
Format : AC-3
Format/Info : Audio Coding 3
Commercial name : Dolby Digital
Codec ID : A_AC3
Duration : 1 h 25 min
Bit rate mode : Constant
Bit rate : 192 kb/s
Channel(s) : 2 channels
Channel layout : L R
Sampling rate : 48.0 kHz
Frame rate : 31.250 FPS (1536 SPF)
Bit depth : 16 bits
Compression mode : Lossy
Stream size : 118 MiB (1%)
Title : The.Grinch.2018.1080p.3D.BluRay.Half-SBS.x264.DTS-HD.MA.7.1-FGT
Language : English
Service kind : Complete Main
Default : No
Forced : No

Audio #5
ID : 6
Format : AC-3
Format/Info : Audio Coding 3
Commercial name : Dolby Digital
Codec ID : A_AC3
Duration : 1 h 25 min
Bit rate mode : Constant
Bit rate : 448 kb/s
Channel(s) : 6 channels
Channel layout : L R C LFE Ls Rs
Sampling rate : 48.0 kHz
Frame rate : 31.250 FPS (1536 SPF)
Bit depth : 16 bits
Compression mode : Lossy
Stream size : 275 MiB (2%)
Title : The.Grinch.2018.1080p.3D.BluRay.Half-SBS.x264.DTS-HD.MA.7.1-FGT
Language : English
Service kind : Complete Main
Default : No
Forced : No

Text #1
ID : 7
Format : PGS
Muxing mode : zlib
Codec ID : S_HDMV/PGS
Codec ID/Info : Picture based subtitle format used on BDs/HD-DVDs
Duration : 1 h 20 min
Bit rate : 55.4 kb/s
Count of elements : 2608
Stream size : 31.7 MiB (0%)
Title : English-PGS
Language : English
Default : Yes
Forced : No

Text #2
ID : 8
Format : PGS
Muxing mode : zlib
Codec ID : S_HDMV/PGS
Codec ID/Info : Picture based subtitle format used on BDs/HD-DVDs
Duration : 1 h 24 min
Bit rate : 38.7 kb/s
Count of elements : 2094
Stream size : 23.5 MiB (0%)
Title : Spanish-PGS
Language : Spanish
Default : No
Forced : No

Text #3
ID : 9
Format : PGS
Muxing mode : zlib
Codec ID : S_HDMV/PGS
Codec ID/Info : Picture based subtitle format used on BDs/HD-DVDs
Duration : 1 h 25 min
Bit rate : 38.2 kb/s
Count of elements : 1992
Stream size : 23.4 MiB (0%)
Title : French-PGS
Language : French
Default : No
Forced : No

Text #4
ID : 10
Format : PGS
Muxing mode : zlib
Codec ID : S_HDMV/PGS
Codec ID/Info : Picture based subtitle format used on BDs/HD-DVDs
Duration : 1 h 23 min
Bit rate : 560 b/s
Count of elements : 34
Stream size : 344 KiB (0%)
Title : Spanish-FORCED-PGS
Language : Spanish
Default : No
Forced : No

Text #5
ID : 11
Format : PGS
Muxing mode : zlib
Codec ID : S_HDMV/PGS
Codec ID/Info : Picture based subtitle format used on BDs/HD-DVDs
Duration : 1 h 23 min
Bit rate : 1 043 b/s
Count of elements : 62
Stream size : 642 KiB (0%)
Title : French-FORCED-PGS
Language : French
Default : No
Forced : No

Menu
00:00:00.000 : en01)00:00:00:000
00:05:40.298 : en02)00:05:40:298
00:10:35.926 : en03)00:10:35:926
00:14:14.103 : en04)00:14:14:103
00:17:45.105 : en05)00:17:45:105
00:22:19.296 : en06)00:22:19:296
00:26:28.336 : en07)00:26:28:336
00:30:45.093 : en08)00:30:45:093
00:34:46.584 : en09)00:34:46:584
00:38:37.189 : en10)00:38:37:189
00:44:40.594 : en:(11)00:44:40:594
00:47:27.678 : en:(12)00:47:27:678
00:52:37.487 : en:(13)00:52:37:487
00:56:33.181 : en:(14)00:56:33:181
01:01:04.994 : en:(15)01:01:04:994
01:05:34.639 : en:(16)01:05:34:639
01:07:23.456 : en:(17)01:07:23:456
01:12:14.913 : en:(18)01:12:14:913
01:14:12.781 : en:(19)01:14:12:781
01:18:08.308 : en:(20)01:18:08:308
01:25:49.435 : en:(21)01:25:49:435




49f13ed7e960bf1a404137635ed973e1.torrent (64.65 KB, 下载次数: 0)

回复

使用道具 举报

小黑屋|百度云资源论坛 ( 闽ICP备16005822号-1 )

本网站所有资源来自网络,如无意中侵犯了您的权益,请发邮件至 aa635343@outlook.com,立即清除相关链接

GMT+8, 2019-12-15 13:27 , Processed in 0.054753 second(s), 18 queries .

Powered by Discuz! X3.4

© 2001-2017 Comsenz Inc.

快速回复 返回顶部 返回列表