百度云资源论坛

 找回密码
 立即注册
搜索
热搜: 百度云资源
开启左侧

大侦探皮卡丘 Pokemon.Detective.Pikachu.2019.1080p.3D.BluRay.Half-OU.x26...

[复制链接]
百度云资源 发表于 2019-8-10 09:33:46 | 显示全部楼层 |阅读模式





帖子完整标题:大侦探皮卡丘 Pokemon.Detective.Pikachu.2019.1080p.3D.BluRay.Half-OU.x264.DTS-HD.MA.7.1-FGT 18.85GB





◎译  名 大侦探皮卡丘 / Detective Pikachu / POKéMON 名侦探皮卡丘(台) / Pokemon / 名侦探皮卡丘 / 宠物小精灵 / 宠物小精灵之名侦探皮卡丘 / 宠物小精灵真人版 / 精灵宝可梦 / 精灵宝可梦之名侦探皮卡丘 / 精灵宝可梦:大侦探皮卡丘
◎片  名 Pokémon Detective Pikachu
◎年  代 2019
◎产  地 美国 / 日本
◎类  别 喜剧 / 动画 / 奇幻 / 冒险
◎语  言 英语 / 日语
◎上映日期 2019-05-10(美国/中国大陆)
◎IMDb评分  7.0/10 from 22561 users
◎片  长 104分钟
◎导  演 罗伯·莱特曼 Rob Letterman
◎编  剧 尼科尔·帕尔曼 Nicole Perlman / 亚历克斯·赫什 Alex Hirsch / Satoshi Tajiri
◎主  演 瑞恩·雷诺兹 Ryan Reynolds
      贾斯蒂斯·史密斯 Justice Smith
      凯瑟琳·纽顿 Kathryn Newton
      克里斯·吉尔 Chris Geere
      比尔·奈伊 Bill Nighy
      渡边谦 Ken Watanabe
      瑞塔·奥拉 Rita Ora
      苏琪·沃特豪斯 Suki Waterhouse
      卡兰·索尼 Karan Soni
      普莉安卡·伯福德 Priyanga Burford
      乔丹·朗 Jordan Long
      贝恩·科拉科 Bern Colla?o
      卡迪夫柯万 Kadiff Kirwan
      奥马尔·查帕罗 Omar Chaparro
      伯纳多·桑托斯 Bernardo Santos
      大谷育江 Ikue Ootani
      露丝·霍洛克斯 Ruth Horrocks
      丹尼尔·厄根 Daniel Eghan
      贾格·帕特尔 Jag Patel
      查利·蕾娅·埃斯奎尔 Charlie Rhea Esquér
      黛博拉·洛克 Deborah Rock
      所罗门·塔伊沃·贾斯提费尔德 Solomon Taiwo Justified
      尼克·欧文福特 Nick Owenford
      凯文·马塔迪恩 Kevin Matadeen
      Diplo


◎标  签 动画 | 美国 | 童年 | 2019 | 日本 | 喜剧 | 动漫 | 游戏改编

◎简  介  

  好莱坞真人电影《大侦探皮卡丘》(暂译)讲述了蒂姆·古德曼(贾 斯 提·史密斯饰) 为寻找下落不明的父亲来到莱姆市,意外与父亲的前宝可梦搭档大侦探皮卡丘相遇,并惊讶地发现自己是唯一能听懂皮卡丘说话的人类,他们决定组队踏上揭开真相的刺激冒险之路。探案过程中他们邂逅了各式各样 的宝可梦,并意外发现了一个足以毁灭整个宝可梦宇宙的惊天阴谋。该电影改编自任天堂3DS同名游戏,由罗伯·莱特曼导演,瑞安·雷诺兹为大侦探皮卡丘配音,贾斯提斯·史密斯、凯瑟琳·纽顿等主演。

◎获奖情况  

  第5届豆瓣电影年度榜单(2018)
  最值得期待的外语电影(提名)



Video
ID                                       : 1
Format                                   : AVC
Format/Info                              : Advanced Video Codec
Format settings                          : CABAC / 3 Ref Frames
Format settings, CABAC                   : Yes
Format settings, Reference frames        : 3 frames
Format settings, GOP                     : M=1, N=23
Codec ID                                 : V_MPEG4/ISO/AVC
Duration                                 : 1 h 44 min
Bit rate                                 : 16.0 Mb/s
Width                                    : 1 920 pixels
Height                                   : 1 080 pixels
Display aspect ratio                     : 16:9
Frame rate mode                          : Constant
Frame rate                               : 23.976 (24000/1001) FPS
Color space                              : YUV
Chroma subsampling                       : 4:2:0
Bit depth                                : 8 bits
Scan type                                : Progressive
Bits/(Pixel*Frame)                       : 0.322
Stream size                              : 11.6 GiB (61%)
Title                                    : Pokemon.Detective.Pikachu.2019.1080p.3D.BluRay.Half-OU.x264.DTS-HD.MA.7.1-FGT
Writing library                          : x264 core 148
Encoding settings                        : cabac=1 / ref=3 / deblock=1:-1:-1 / analyse=0x3:0 / me=hex / subme=5 / psy=1 / psy_rd=1.00:0.00 / mixed_ref=0 / me_range=16 / chroma_me=1 / trellis=1 / 8x8dct=1 / cqm=0 / deadzone=21,11 / fast_pskip=0 / chroma_qp_offset=0 / threads=24 / lookahead_threads=6 / sliced_threads=0 / nr=0 / decimate=1 / interlaced=0 / bluray_compat=0 / constrained_intra=0 / bframes=2 / b_pyramid=0 / b_adapt=1 / b_bias=0 / direct=1 / weightb=0 / open_gop=0 / weightp=0 / keyint=24 / keyint_min=2 / scenecut=40 / intra_refresh=0 / rc=abr / mbtree=0 / bitrate=16000 / ratetol=1.0 / qcomp=0.60 / qpmin=0 / qpmax=69 / qpstep=4 / ip_ratio=1.40 / pb_ratio=1.30 / aq=1:1.00
Default                                  : Yes
Forced                                   : No
Color range                              : Limited
Color primaries                          : BT.709
Transfer characteristics                 : BT.709
Matrix coefficients                      : BT.709

Audio #1
ID                                       : 2
Format                                   : DTS XLL
Format/Info                              : Digital Theater Systems
Commercial name                          : DTS-HD Master Audio
Codec ID                                 : A_DTS
Duration                                 : 1 h 44 min
Bit rate mode                            : Variable
Bit rate                                 : 4 220 kb/s
Channel(s)                               : 8 channels
Channel layout                           : C L R LFE Lb Rb Lss Rss
Sampling rate                            : 48.0 kHz
Frame rate                               : 93.750 FPS (512 SPF)
Bit depth                                : 24 bits
Compression mode                         : Lossless
Stream size                              : 3.08 GiB (16%)
Title                                    : Pokemon.Detective.Pikachu.2019.1080p.3D.BluRay.Half-SBS.x264.DTS-HD.MA.7.1-FGT
Language                                 : English
Default                                  : Yes
Forced                                   : No





                                                                                                                                                                                                        
                                                                                                                                                                                                                                                                                                                                                                                                                                                                                                                                                                                                                                                                                                                                                                                                                                                      
a04bad5bd8ddeb669d2f4db2455c436b.torrent (94.83 KB, 下载次数: 0)

回复

使用道具 举报

小黑屋|百度云资源论坛 ( 闽ICP备16005822号-1 )

本网站所有资源来自网络,如无意中侵犯了您的权益,请发邮件至 [email protected],立即清除相关链接

GMT+8, 2019-10-24 13:52 , Processed in 0.050618 second(s), 18 queries .

Powered by Discuz! X3.4

© 2001-2017 Comsenz Inc.

快速回复 返回顶部 返回列表