百度云资源论坛

 找回密码
 立即注册
搜索
热搜: 百度云资源
开启左侧

钢铁侠2/钢铁人2 Iron.Man.2.2010.REMASTERED.1080p.BluRay.x264.DTS-HD.MA....

[复制链接]
百度云资源 发表于 2019-8-10 09:34:07 | 显示全部楼层 |阅读模式




帖子完整标题:钢铁侠2/钢铁人2 Iron.Man.2.2010.REMASTERED.1080p.BluRay.x264.DTS-HD.MA.7.1-SWTYBLZ 18.81GB




◎译  名 钢铁侠2 / 钢铁人2(台) / 铁人2 / 铁甲奇侠2(港)
◎片  名 Iron Man 2
◎年  代 2010
◎产  地 美国
◎类  别 动作 / 科幻 / 冒险
◎语  言 英语 / 法语 / 俄语
◎上映日期 2010-05-07(中国大陆/美国)
◎IMDb评分  7.0/10 from 665986 users
◎片  长 124 分钟
◎导  演 乔恩·费儒 Jon Favreau
◎编  剧 贾斯汀·塞洛克斯 Justin Theroux
◎主  演 小罗伯特·唐尼 Robert Downey Jr.
       格温妮斯·帕特洛 Gwyneth Paltrow
       米基·洛克 Mickey Rourke
       斯嘉丽·约翰逊 Scarlett Johansson
       山姆·洛克威尔 Sam Rockwell
       唐·钱德尔 Don Cheadle
       塞缪尔·杰克逊 Samuel L. Jackson
       乔恩·费儒 Jon Favreau
       保罗·贝坦尼 Paul Bettany
       克拉克·格雷格 Clark Gregg
       凯特·玛拉 Kate Mara
       约翰·斯拉特里 John Slattery


◎标  签 科幻 | 美国 | 钢铁侠 | 动作 | 漫威 | 漫画改编 | 美国电影 | RobertDowneyJr

◎简  介  

  钢铁侠托尼·斯塔克(小罗伯特·唐尼 Robert Downey Jr. 饰)在国会听证上拒绝交出最新技术。与此同时,他发现胸口的微型电弧反应炉正迅速造成血液的钯金属中毒。沮丧的托尼将斯塔克公司的总裁职务交予了秘书波兹(格温妮丝·帕特罗 Gwyneth Paltrow 饰),由她全权负责正在进行的纽约斯塔克博览会。波兹从法律部门调来助理娜塔莉(斯佳丽·约翰逊 Scarlett Johansson 饰)照顾托尼。托尼在媒体前的高调亮相引起了其父当年同事的儿子,伊凡(米基·洛克 Mickey Rourke 饰)的不满。为了实施报复,他子承父业,研制出了一套可与钢铁战衣相媲美的装备。伊凡的技术引起了托尼的竞争对手,军火商贾斯丁·汉默(山姆·洛克威尔 Sam Rockwell 饰)的注意,他设法将伊凡劫持出狱,秘密研究取代钢铁侠。正当托尼苦于钯金属中毒造成的失意之时,他发现娜塔莉原来身负秘密使命,而自己的任性,也造成了与好友,空军上校罗尼(唐·钱德尔 Don Cheadle 饰)的反目,眼看局势就要失控……

◎获奖情况  

  第83届奥斯卡金像奖(2011)
  最佳视觉效果(提名) 盖德·赖特 / 丹尼尔·萨迪克 / 加内克·西尔斯 / Ben Snow

  第20届MTV电影奖(2011)
  MTV电影奖 最佳反派(提名) 米基·洛克

  第12届美国青少年选择奖(2010)
  最佳科幻电影(提名)
  最佳科幻电影男演员(提名) 小罗伯特·唐尼
  最佳科幻电影女演员(提名) 斯嘉丽·约翰逊 / 格温妮斯·帕特洛
  最佳电影舞蹈(提名) 小罗伯特·唐尼
  最佳电影反派(提名) 米基·洛克
  最佳电影打斗(提名) 小罗伯特·唐尼 / 唐·钱德尔
Video
ID                                       : 1
Format                                   : AVC
Format/Info                              : Advanced Video Codec
Format settings                          : CABAC / 5 Ref Frames
Format settings, CABAC                   : Yes
Format settings, Reference frames        : 5 frames
Codec ID                                 : V_MPEG4/ISO/AVC
Duration                                 : 2 h 4 min
Bit rate                                 : 17.3 Mb/s
Width                                    : 1 920 pixels
Height                                   : 816 pixels
Display aspect ratio                     : 2.35:1
Frame rate mode                          : Constant
Frame rate                               : 23.976 (24000/1001) FPS
Color space                              : YUV
Chroma subsampling                       : 4:2:0
Bit depth                                : 8 bits
Scan type                                : Progressive
Bits/(Pixel*Frame)                       : 0.460
Stream size                              : 15.0 GiB (80%)
Title                                    : Iron.Man.2.2010.REMASTERED.1080p.BluRay.x264.TrueHD.7.1.Atmos-SWTYBLZ
Writing library                          : x264 core 157 r2935 545de2f
Encoding settings                        : cabac=1 / ref=5 / deblock=1:-1:-1 / analyse=0x3:0x133 / me=umh / subme=10 / psy=1 / psy_rd=1.00:0.15 / mixed_ref=1 / me_range=48 / chroma_me=1 / trellis=2 / 8x8dct=1 / cqm=0 / deadzone=21,11 / fast_pskip=1 / chroma_qp_offset=-3 / threads=25 / lookahead_threads=4 / sliced_threads=0 / nr=0 / decimate=0 / interlaced=0 / bluray_compat=0 / constrained_intra=0 / bframes=8 / b_pyramid=2 / b_adapt=2 / b_bias=0 / direct=3 / weightb=1 / open_gop=0 / weightp=2 / keyint=250 / keyint_min=23 / scenecut=40 / intra_refresh=0 / rc_lookahead=60 / rc=crf / mbtree=1 / crf=13.0 / qcomp=0.60 / qpmin=0 / qpmax=69 / qpstep=4 / ip_ratio=1.40 / aq=1:1.00
Default                                  : Yes
Forced                                   : No

Audio
ID                                       : 2
Format                                   : DTS XLL
Format/Info                              : Digital Theater Systems
Commercial name                          : DTS-HD Master Audio
Codec ID                                 : A_DTS
Duration                                 : 2 h 4 min
Bit rate mode                            : Variable
Bit rate                                 : 4 208 kb/s
Channel(s)                               : 8 channels
Channel layout                           : C L R LFE Lb Rb Lss Rss
Sampling rate                            : 48.0 kHz
Frame rate                               : 93.750 FPS (512 SPF)
Bit depth                                : 24 bits
Compression mode                         : Lossless
Stream size                              : 3.66 GiB (19%)
Title                                    : Iron.Man.2.2010.2160p.US.BluRay.x264.8bit.SDR.DTS-HD.MA.TrueHD.7.1.Atmos-SWTYBLZ
Language                                 : English
Default                                  : No
Forced                                   : No

Text #1
ID                                       : 3
Format                                   : UTF-8
Codec ID                                 : S_TEXT/UTF8
Codec ID/Info                            : UTF-8 Plain Text
Duration                                 : 2 h 4 min
Bit rate                                 : 65 b/s
Count of elements                        : 1523
Stream size                              : 59.2 KiB (0%)
Title                                    : English-SRT
Language                                 : English
Default                                  : Yes
Forced                                   : No

Text #2
ID                                       : 4
Format                                   : PGS
Muxing mode                              : zlib
Codec ID                                 : S_HDMV/PGS
Codec ID/Info                            : Picture based subtitle format used on BDs/HD-DVDs
Duration                                 : 2 h 4 min
Bit rate                                 : 39.3 kb/s
Count of elements                        : 3052
Stream size                              : 34.9 MiB (0%)
Title                                    : English
Language                                 : English
Default                                  : No
Forced                                   : No

Text #3
ID                                       : 5
Format                                   : PGS
Muxing mode                              : zlib
Codec ID                                 : S_HDMV/PGS
Codec ID/Info                            : Picture based subtitle format used on BDs/HD-DVDs
Duration                                 : 2 h 4 min
Bit rate                                 : 53.1 kb/s
Count of elements                        : 3440
Stream size                              : 47.2 MiB (0%)
Title                                    : English-SDH-PGS
Language                                 : English
Default                                  : No
Forced                                   : No

Text #4
ID                                       : 6
Format                                   : PGS
Muxing mode                              : zlib
Codec ID                                 : S_HDMV/PGS
Codec ID/Info                            : Picture based subtitle format used on BDs/HD-DVDs
Duration                                 : 2 h 4 min
Bit rate                                 : 43.3 kb/s
Count of elements                        : 3090
Stream size                              : 38.4 MiB (0%)
Title                                    : French-PGS
Language                                 : French
Default                                  : No
Forced                                   : No

Text #5
ID                                       : 7
Format                                   : PGS
Muxing mode                              : zlib
Codec ID                                 : S_HDMV/PGS
Codec ID/Info                            : Picture based subtitle format used on BDs/HD-DVDs
Duration                                 : 2 h 4 min
Bit rate                                 : 33.7 kb/s
Count of elements                        : 3216
Stream size                              : 29.9 MiB (0%)
Title                                    : French-PGS
Language                                 : French
Default                                  : No
Forced                                   : No

Text #6
ID                                       : 8
Format                                   : PGS
Muxing mode                              : zlib
Codec ID                                 : S_HDMV/PGS
Codec ID/Info                            : Picture based subtitle format used on BDs/HD-DVDs
Duration                                 : 2 h 4 min
Bit rate                                 : 41.4 kb/s
Count of elements                        : 2926
Stream size                              : 36.8 MiB (0%)
Title                                    : Italian-PGS
Language                                 : Italian
Default                                  : No
Forced                                   : No

Text #7
ID                                       : 9
Format                                   : PGS
Muxing mode                              : zlib
Codec ID                                 : S_HDMV/PGS
Codec ID/Info                            : Picture based subtitle format used on BDs/HD-DVDs
Duration                                 : 2 h 4 min
Bit rate                                 : 26.3 kb/s
Count of elements                        : 3124
Stream size                              : 23.3 MiB (0%)
Title                                    : Japanese-PGS
Language                                 : Japanese
Default                                  : No
Forced                                   : No

Text #8
ID                                       : 10
Format                                   : PGS
Muxing mode                              : zlib
Codec ID                                 : S_HDMV/PGS
Codec ID/Info                            : Picture based subtitle format used on BDs/HD-DVDs
Duration                                 : 2 h 4 min
Bit rate                                 : 33.4 kb/s
Count of elements                        : 2896
Stream size                              : 29.6 MiB (0%)
Title                                    : Norwegian-PGS
Language                                 : Norwegian
Default                                  : No
Forced                                   : No

Text #9
ID                                       : 11
Format                                   : PGS
Muxing mode                              : zlib
Codec ID                                 : S_HDMV/PGS
Codec ID/Info                            : Picture based subtitle format used on BDs/HD-DVDs
Duration                                 : 2 h 4 min
Bit rate                                 : 36.2 kb/s
Count of elements                        : 3092
Stream size                              : 32.3 MiB (0%)
Title                                    : Spanish-PGS
Language                                 : Spanish
Default                                  : No
Forced                                   : No

Text #10
ID                                       : 12
Format                                   : PGS
Muxing mode                              : zlib
Codec ID                                 : S_HDMV/PGS
Codec ID/Info                            : Picture based subtitle format used on BDs/HD-DVDs
Duration                                 : 2 h 4 min
Bit rate                                 : 39.8 kb/s
Count of elements                        : 2442
Stream size                              : 35.3 MiB (0%)
Title                                    : Swedish
Language                                 : Swedish
Default                                  : No
Forced                                   : No

Menu
00:00:00.000                             : en:Chapter 01
00:05:01.801                             : en:Chapter 02
00:11:05.081                             : en:Chapter 03
00:17:57.451                             : en:Chapter 04
00:25:50.507                             : en:Chapter 05
00:30:24.281                             : en:Chapter 06
00:37:30.498                             : en:Chapter 07
00:43:57.134                             : en:Chapter 08
00:51:36.844                             : en:Chapter 09
01:00:08.021                             : en:Chapter 10
01:06:59.015                             : en:Chapter 11
01:15:58.262                             : en:Chapter 12
01:21:10.783                             : en:Chapter 13
01:30:31.051                             : en:Chapter 14
01:38:46.838                             : en:Chapter 15
01:45:39.291                             : en:Chapter 16
01:54:14.848                             : en:Chapter 17




                                                                                                                                                                                                        
                                                                                                                                                                                                                                                                                                                                                                                                                                                                                                                                                                                                                                                                                                                                                                                                                                                      
baa69cce0400177cc191642e5092f514.torrent (94.62 KB, 下载次数: 0)

回复

使用道具 举报

小黑屋|百度云资源论坛 ( 闽ICP备16005822号-1 )

本网站所有资源来自网络,如无意中侵犯了您的权益,请发邮件至 [email protected],立即清除相关链接

GMT+8, 2019-8-25 05:16 , Processed in 0.071437 second(s), 19 queries .

Powered by Discuz! X3.2

© 2001-2013 Comsenz Inc.

快速回复 返回顶部 返回列表