百度云资源论坛

 找回密码
 立即注册
搜索
热搜: 百度云资源
开启左侧

五毒 The.Five.Deadly.Venoms.1978.1080p.BluRay.x264-aAF 6.56GB

[复制链接]
百度云资源 发表于 2019-8-10 09:34:12 | 显示全部楼层 |阅读模式





帖子完整标题:五毒 The.Five.Deadly.Venoms.1978.1080p.BluRay.x264-aAF 6.56GB




◎译  名 Five Venoms / The Five Deadly Venoms
◎片  名 五毒
◎年  代 1978
◎产  地 香港
◎类  别 剧情 / 动作 / 古装
◎语  言 汉语普通话
◎上映日期 1978-08-12
◎IMDb评分  7.1/10 from 5559 users
◎片  长 Hong Kong: 97 分钟
◎导  演 张彻
◎编  剧 张彻 / 倪匡
◎主  演 郭追
       孙建
       江生
       罗莽
       鹿峰
       韦白


◎标  签 张彻 | 邵氏 | 香港 | 武侠 | 香港电影 | cult | 动作 | 1978

◎简  介  

  五毒门乃江湖上一恶名远扬的门派,老掌门靠药浴维系残年,身边只有一个弟子杨得(江生 饰)。有感本门恶事作尽,老掌门命杨得清理本门门户,并寻找其师叔的宝藏。杨得的五位师兄分别习练五种由毒虫而来的武功,分别是:蜈蚣(鹿峰 饰)、蛇(韦白 饰)、蝎子(孙建 饰)、壁虎(郭追 饰)、蛤蟆(罗莽 饰)。
  杨得乔装成乞儿,迤逦打探到一座县城,巧遇隐姓埋名的师叔老夫子一家遭人灭门,凶手正是大师兄与二师兄,虽然本县何捕头凭习练蛤蟆功的五师兄助拳将大师兄拿获,但县令与二师兄勾结反将五师兄下狱害死。三师兄时常蒙面夜会二师兄,掌控全局于幕后。
  杨得发现何捕头即四师兄后向对方亮明身份,两人决定合力清除大师兄二师兄。暗处的三师兄决定出手了……
Video
ID                                       : 1
Format                                   : AVC
Format/Info                              : Advanced Video Codec
Format settings, CABAC                   : Yes
Format settings, ReFrames                : 5 frames
Codec ID                                 : V_MPEG4/ISO/AVC
Duration                                 : 1h 41mn
Bit rate                                 : 8 855 Kbps
Width                                    : 1 920 pixels
Height                                   : 808 pixels
Display aspect ratio                     : 2.40:1
Frame rate mode                          : Constant
Frame rate                               : 23.976 (24000/1001) fps
Color space                              : YUV
Chroma subsampling                       : 4:2:0
Bit depth                                : 8 bits
Scan type                                : Progressive
Bits/(Pixel*Frame)                       : 0.238
Stream size                              : 6.15 GiB (94%)
Writing library                          : x264 core 115 r1995 c1e60b9
Encoding settings                        : cabac=1 / ref=5 / deblock=1:0:0 / analyse=0x3:0x133 / me=umh / subme=8 / psy=1 / psy_rd=1.00:0.00 / mixed_ref=1 / me_range=16 / chroma_me=1 / trellis=1 / 8x8dct=1 / cqm=0 / deadzone=21,11 / fast_pskip=0 / chroma_qp_offset=-2 / threads=12 / sliced_threads=0 / nr=0 / decimate=1 / interlaced=0 / bluray_compat=0 / constrained_intra=0 / bframes=3 / b_pyramid=2 / b_adapt=1 / b_bias=0 / direct=1 / weightb=1 / open_gop=0 / weightp=2 / keyint=240 / keyint_min=24 / scenecut=40 / intra_refresh=0 / rc_lookahead=40 / rc=2pass / mbtree=1 / bitrate=8855 / ratetol=1.0 / qcomp=0.60 / qpmin=0 / qpmax=69 / qpstep=4 / cplxblur=20.0 / qblur=0.5 / ip_ratio=1.40 / aq=1:1.00
Language                                 : Chinese
Default                                  : Yes
Forced                                   : No

Audio #1
ID                                       : 2
Format                                   : AC-3
Format/Info                              : Audio Coding 3
Mode extension                           : CM (complete main)
Format settings, Endianness              : Big
Codec ID                                 : A_AC3
Duration                                 : 1h 41mn
Bit rate mode                            : Constant
Bit rate                                 : 192 Kbps
Channel(s)                               : 2 channels
Channel positions                        : Front: L R
Sampling rate                            : 48.0 KHz
Frame rate                               : 31.250 fps (1536 spf)
Compression mode                         : Lossy
Stream size                              : 140 MiB (2%)
Language                                 : English
Default                                  : Yes
Forced                                   : No

Audio #2
ID                                       : 3
Format                                   : AC-3
Format/Info                              : Audio Coding 3
Mode extension                           : CM (complete main)
Format settings, Endianness              : Big
Codec ID                                 : A_AC3
Duration                                 : 1h 41mn
Bit rate mode                            : Constant
Bit rate                                 : 192 Kbps
Channel(s)                               : 2 channels
Channel positions                        : Front: L R
Sampling rate                            : 48.0 KHz
Frame rate                               : 31.250 fps (1536 spf)
Compression mode                         : Lossy
Stream size                              : 140 MiB (2%)
Language                                 : Chinese
Default                                  : No
Forced                                   : No

Text
ID                                       : 4
Format                                   : UTF-8
Codec ID                                 : S_TEXT/UTF8
Codec ID/Info                            : UTF-8 Plain Text
Language                                 : English
Default                                  : Yes
Forced                                   : No




                                                                                                                                                                                                        
                                                                                                                                                                                                                                                                                                                                                                                                                                                                                                                                                                                                                                                                                                                                                                                                                                                      
b25579c20f06109276d0fe88088290c2.torrent (66.18 KB, 下载次数: 0)

回复

使用道具 举报

小黑屋|百度云资源论坛 ( 闽ICP备16005822号-1 )

本网站所有资源来自网络,如无意中侵犯了您的权益,请发邮件至 [email protected],立即清除相关链接

GMT+8, 2019-8-25 05:18 , Processed in 0.059421 second(s), 19 queries .

Powered by Discuz! X3.2

© 2001-2013 Comsenz Inc.

快速回复 返回顶部 返回列表