百度云资源论坛

 找回密码
 立即注册
搜索
热搜: 百度云资源
开启左侧

神秘森林 The.Woods.2006.1080p.BluRay.x264-SPECTACLE 7.64GB

[复制链接]
百度云资源 发表于 2019-8-10 09:34:15 | 显示全部楼层 |阅读模式




帖子完整标题:神秘森林 The.Woods.2006.1080p.BluRay.x264-SPECTACLE 7.64GB





◎译  名 神秘森林
◎片  名 The Woods
◎年  代 2006
◎产  地 美国 / 英国 / 德国
◎类  别 悬疑 / 惊悚 / 恐怖
◎语  言 英语
◎上映日期 2006-09-27
◎片  长 91 分钟
◎导  演 Lucky McKee
◎编  剧 David Ross
◎主  演 Colleen Williams
       Lauren Birkell
       Ivana Shein


◎标  签 美国 | 恐怖 | 惊悚 | 魔幻 | 美国电影 | 2006 | 我看过的电影 | 我看过的英语电影

◎简  介  

  1965年新西兰,长相平平的女孩海瑟尔?法苏罗(Agnes Bruckner 饰)生长在一个缺少温暖的家庭之中,她因引起森林火灾而被父母送到一所偏远的寄宿学校——费尔伯恩学院就读。这所学校枯燥呆板,院长崔西夫人(Patricia Clarkson 饰)严苛冷酷,同时海瑟尔又和新结识的朋友马茜(Lauren Birkell 饰)经常受到室友萨曼莎(Rachel Nichols 饰)的欺负,这一切的一切,都令海瑟尔想早点逃离这个黑暗之地。
  偶然见她发现,身边的同学相继人间蒸发,海瑟尔隐隐感觉到,自己将会是下一个……
Video
ID                                       : 1
Format                                   : AVC
Format/Info                              : Advanced Video Codec
Format settings                          : CABAC / 5 Ref Frames
Format settings, CABAC                   : Yes
Format settings, Reference frames        : 5 frames
Codec ID                                 : V_MPEG4/ISO/AVC
Duration                                 : 1 h 31 min
Bit rate                                 : 11.4 Mb/s
Width                                    : 1 920 pixels
Height                                   : 816 pixels
Display aspect ratio                     : 2.35:1
Frame rate mode                          : Constant
Frame rate                               : 23.976 (24000/1001) FPS
Color space                              : YUV
Chroma subsampling                       : 4:2:0
Bit depth                                : 8 bits
Scan type                                : Progressive
Bits/(Pixel*Frame)                       : 0.303
Stream size                              : 7.23 GiB (95%)
Writing library                          : x264 core 158 r2984 3759fcb
Encoding settings                        : cabac=1 / ref=5 / deblock=1:-3:-3 / analyse=0x3:0x133 / me=umh / subme=11 / psy=1 / psy_rd=1.00:0.00 / mixed_ref=1 / me_range=64 / chroma_me=1 / trellis=2 / 8x8dct=1 / cqm=0 / deadzone=21,11 / fast_pskip=0 / chroma_qp_offset=-2 / threads=9 / lookahead_threads=1 / sliced_threads=0 / nr=0 / decimate=1 / interlaced=0 / bluray_compat=0 / constrained_intra=0 / bframes=8 / b_pyramid=2 / b_adapt=2 / b_bias=0 / direct=3 / weightb=1 / open_gop=0 / weightp=2 / keyint=240 / keyint_min=23 / scenecut=40 / intra_refresh=0 / rc_lookahead=60 / rc=2pass / mbtree=0 / bitrate=11385 / ratetol=1.0 / qcomp=0.60 / qpmin=0 / qpmax=69 / qpstep=4 / cplxblur=20.0 / qblur=0.5 / vbv_maxrate=62500 / vbv_bufsize=78125 / nal_hrd=none / filler=0 / ip_ratio=1.40 / pb_ratio=1.30 / aq=3:0.70
Default                                  : Yes
Forced                                   : No

Audio
ID                                       : 2
Format                                   : AC-3
Format/Info                              : Audio Coding 3
Commercial name                          : Dolby Digital
Codec ID                                 : A_AC3
Duration                                 : 1 h 31 min
Bit rate mode                            : Constant
Bit rate                                 : 640 kb/s
Channel(s)                               : 6 channels
Channel layout                           : L R C LFE Ls Rs
Sampling rate                            : 48.0 kHz
Frame rate                               : 31.250 FPS (1536 SPF)
Bit depth                                : 16 bits
Compression mode                         : Lossy
Stream size                              : 417 MiB (5%)
Language                                 : English
Service kind                             : Complete Main
Default                                  : Yes
Forced                                   : No




                                                                                                                                                                                                        
                                                                                                                                                                                                                                                                                                                                                                                                                                                                                                                                                                                                                                                                                                                                                                                                                                                      
ff690524c99e81b65da108af735c06c3.torrent (38.84 KB, 下载次数: 0)

回复

使用道具 举报

小黑屋|百度云资源论坛 ( 闽ICP备16005822号-1 )

本网站所有资源来自网络,如无意中侵犯了您的权益,请发邮件至 [email protected],立即清除相关链接

GMT+8, 2019-8-25 05:17 , Processed in 0.064828 second(s), 19 queries .

Powered by Discuz! X3.2

© 2001-2013 Comsenz Inc.

快速回复 返回顶部 返回列表