百度云资源论坛

 找回密码
 立即注册
搜索
热搜: 百度云资源
开启左侧

钢铁侠3/钢铁人3 Iron.Man.3.2013.REMASTERED.1080p.BluRay.x264.DTS-SWTYBL...

[复制链接]
百度云资源 发表于 2019-8-10 09:34:18 | 显示全部楼层 |阅读模式





帖子完整标题:钢铁侠3/钢铁人3 Iron.Man.3.2013.REMASTERED.1080p.BluRay.x264.DTS-SWTYBLZ 13.25GB




◎译  名 钢铁侠3 / 钢铁人3(台) / 铁人3 / 铁甲奇侠3(港)
◎片  名 Iron Man 3
◎年  代 2013
◎产  地 美国 / 中国大陆
◎类  别 动作 / 科幻
◎语  言 英语 / 汉语普通话
◎上映日期 2013-04-18(伦敦首映) / 2013-05-01(中国大陆) / 2013-05-03(美国)
◎IMDb评分  7.2/10 from 700775 users
◎片  长 134分钟(中国大陆)
◎导  演 沙恩·布莱克 Shane Black
◎编  剧 沙恩·布莱克 Shane Black / 德鲁·皮尔斯 Drew Pearce / 斯坦·李 Stan Lee / 唐·赫克 Don Heck / 拉里·利伯 Larry Lieber / 杰克·科比 Jack Kirby
◎主  演 小罗伯特·唐尼 Robert Downey Jr.
       盖·皮尔斯 Guy Pearce
       格温妮斯·帕特洛 Gwyneth Paltrow
       本·金斯利 Ben Kingsley
       唐·钱德尔 Don Cheadle
       保罗·贝坦尼 Paul Bettany
       丽贝卡·豪尔 Rebecca Hall
       乔恩·费儒 Jon Favreau
       威廉姆·赛德勒 William Sadler
       詹姆斯·戴尔 James Badge Dale
       伊芳·齐玛 Yvonne Zima
       泰·辛普金斯 Ty Simpkins
       阿什利·汉弥尔顿 Ashley Hamilton
       王学圻 Xueqi Wang
       范冰冰 Bingbing Fan


◎标  签 科幻 | 钢铁侠 | 美国 | 超级英雄 | 动作 | MARVEL | 2013 | 漫画改编

◎简  介  

  自纽约事件以来,托尼·斯塔克(小罗伯特·唐尼 Robert Downey Jr. 饰)为前所未有的焦虑症所困扰。他疯狂投入钢铁侠升级版的研发,为此废寝忘食,甚至忽略了女友佩珀·波茨(格温妮斯·帕特洛 Gwyneth Paltrow 饰)的感受。与此同时,臭名昭著的恐怖头目曼达林(本·金斯利 Ben Kingsley 饰)制造了一连串的爆炸袭击事件,托尼当年最忠诚的保镖即在最近的一次袭击中身负重伤。未过多久,托尼、佩珀以及曾与他有过一面之缘的女植物学家玛雅(丽贝卡·豪尔 Rebecca Hall 饰)在家中遭到猛烈的炮火袭击,几乎丧命,而这一切似乎都与22年前那名偶然邂逅的科学家阿尔德里奇·基连(盖·皮尔斯 Guy Pearce 饰)及其终极生物的研究有关。
  即使有精密先进的铠甲护身,也无法排遣发自心底的焦虑。被击碎一切的托尼,如何穿越来自地狱的熊熊烈火……

◎获奖情况  

  第86届奥斯卡金像奖(2014)
  最佳视觉效果(提名) 盖伊·威廉斯 / 克里斯托弗·汤森 / Erik Nash / 丹尼尔·萨迪克

  第23届MTV电影奖(2014)
  MTV电影奖 最佳客串表演(提名) 琼·里弗斯
  MTV电影奖 最佳英雄形象(提名) 小罗伯特·唐尼

  第61届美国音效剪辑协会奖(2014)
  金卷轴奖 最佳电影音效剪辑(提名) John T. Cucci / Charlie Campagna / 丹·奥康奈尔 / Tim Walston / Alan Rankin / Karen Vassar / 安德鲁·克里斯托法罗 / Ann Scibelli / Shannon Mills / 马克·P·施特金格尔

  第12届美国视觉效果协会奖(2014)
  最佳特效电影视觉效果(提名) 布莱恩·吉尔 / 盖伊·威廉斯 / Mark G. Soper / 克里斯托弗·汤森
  最佳真人电影CG背景(提名) John Stevenson-Galvin
  最佳电影虚拟摄影(提名) Thelvin Cabezas
  最佳电影视觉效果合成(提名) Justin van der Lek / Stefano Trivelli

  第50届美国声音效果协会奖(2014)
  真人电影最佳音效(提名) Joel Iwataki / Mike Prestwood Smith / Michael Keller

  第19届美国评论家选择电影奖(2014)
  最佳动作片(提名)
  动作片最佳男主角(提名) 小罗伯特·唐尼
  动作片最佳女主角(提名) 格温妮斯·帕特洛
  最佳视觉效果(提名)

  第17届好莱坞电影奖(2013)
  年度电影(提名) 沙恩·布莱克

  第15届美国青少年选择奖(2013)
  最佳动作片
  最佳动作片男演员 小罗伯特·唐尼
  最佳动作片女演员(提名) 格温妮斯·帕特洛
  最佳科幻/奇幻电影(提名)
  最佳科幻/奇幻电影男演员(提名) 小罗伯特·唐尼
  最佳科幻/奇幻电影女演员(提名) 格温妮斯·帕特洛
  最佳电影反派(提名) 本·金斯利
  最佳银幕拍档(提名) 小罗伯特·唐尼 / 唐·钱德尔

  第4届豆瓣电影鑫像奖(2014)
  鑫豆单元 最佳科幻/动作片(提名)
Video
ID                                       : 1
Format                                   : AVC
Format/Info                              : Advanced Video Codec
Format settings                          : CABAC / 5 Ref Frames
Format settings, CABAC                   : Yes
Format settings, Reference frames        : 5 frames
Codec ID                                 : V_MPEG4/ISO/AVC
Duration                                 : 2 h 10 min
Bit rate                                 : 13.0 Mb/s
Width                                    : 1 920 pixels
Height                                   : 800 pixels
Display aspect ratio                     : 2.40:1
Frame rate mode                          : Constant
Frame rate                               : 23.976 (24000/1001) FPS
Color space                              : YUV
Chroma subsampling                       : 4:2:0
Bit depth                                : 8 bits
Scan type                                : Progressive
Bits/(Pixel*Frame)                       : 0.354
Stream size                              : 11.9 GiB (90%)
Title                                    : Iron.Man.3.2013.REMASTERED.1080p.BluRay.x264.DTS-SWTYBLZ
Writing library                          : x264 core 157 r2935 545de2f
Encoding settings                        : cabac=1 / ref=5 / deblock=1:-1:-1 / analyse=0x3:0x133 / me=umh / subme=10 / psy=1 / psy_rd=1.00:0.15 / mixed_ref=1 / me_range=48 / chroma_me=1 / trellis=2 / 8x8dct=1 / cqm=0 / deadzone=21,11 / fast_pskip=1 / chroma_qp_offset=-3 / threads=25 / lookahead_threads=4 / sliced_threads=0 / nr=0 / decimate=0 / interlaced=0 / bluray_compat=0 / constrained_intra=0 / bframes=8 / b_pyramid=2 / b_adapt=2 / b_bias=0 / direct=3 / weightb=1 / open_gop=0 / weightp=2 / keyint=250 / keyint_min=23 / scenecut=40 / intra_refresh=0 / rc_lookahead=60 / rc=crf / mbtree=1 / crf=12.0 / qcomp=0.60 / qpmin=0 / qpmax=69 / qpstep=4 / ip_ratio=1.40 / aq=1:1.00
Language                                 : English
Default                                  : Yes
Forced                                   : No

Audio
ID                                       : 2
Format                                   : DTS
Format/Info                              : Digital Theater Systems
Codec ID                                 : A_DTS
Duration                                 : 2 h 10 min
Bit rate mode                            : Constant
Bit rate                                 : 1 509 kb/s
Channel(s)                               : 6 channels
Channel layout                           : C L R Ls Rs LFE
Sampling rate                            : 48.0 kHz
Frame rate                               : 93.750 FPS (512 SPF)
Bit depth                                : 24 bits
Compression mode                         : Lossy
Stream size                              : 1.38 GiB (10%)
Title                                    : Iron.Man.3.2013.REMASTERED.1080p.BluRay.x264.DTS-SWTYBLZ
Language                                 : English
Default                                  : Yes
Forced                                   : No

Text
ID                                       : 3
Format                                   : UTF-8
Codec ID                                 : S_TEXT/UTF8
Codec ID/Info                            : UTF-8 Plain Text
Duration                                 : 2 h 10 min
Bit rate                                 : 58 b/s
Count of elements                        : 1733
Stream size                              : 56.0 KiB (0%)
Title                                    : English-SRT
Language                                 : English
Default                                  : Yes
Forced                                   : No

Menu
00:00:00.000                             : en:Chapter 01
00:04:52.751                             : en:Chapter 02
00:07:55.433                             : en:Chapter 03
00:12:12.440                             : en:Chapter 04
00:19:04.101                             : en:Chapter 05
00:23:47.885                             : en:Chapter 06
00:29:47.703                             : en:Chapter 07
00:39:46.384                             : en:Chapter 08
00:45:56.045                             : en:Chapter 09
00:59:19.639                             : en:Chapter 10
01:01:56.922                             : en:Chapter 11
01:09:24.452                             : en:Chapter 12
01:18:41.508                             : en:Chapter 13
01:23:52.945                             : en:Chapter 14
01:37:55.995                             : en:Chapter 15
01:56:18.305                             : en:Chapter 16
01:59:38.755                             : en:Chapter 17




                                                                                                                                                                                                        
                                                                                                                                                                                                                                                                                                                                                                                                                                                                                                                                                                                                                                                                                                                                                                                                                                                      
3a0290ce5b69410089f37a378d81ea77.torrent (66.8 KB, 下载次数: 0)

回复

使用道具 举报

小黑屋|百度云资源论坛 ( 闽ICP备16005822号-1 )

本网站所有资源来自网络,如无意中侵犯了您的权益,请发邮件至 [email protected],立即清除相关链接

GMT+8, 2019-8-25 05:16 , Processed in 0.066892 second(s), 19 queries .

Powered by Discuz! X3.2

© 2001-2013 Comsenz Inc.

快速回复 返回顶部 返回列表