百度云资源论坛

 找回密码
 立即注册
搜索
热搜: 百度云资源
开启左侧

轻松生活 Easy.Living.1937.720p.BluRay.x264-PSYCHD 5.47GB

[复制链接]
百度云资源 发表于 2019-8-10 09:34:26 | 显示全部楼层 |阅读模式





帖子完整标题:轻松生活 Easy.Living.1937.720p.BluRay.x264-PSYCHD 5.47GB



◎译  名 轻松生活
◎片  名 Easy Living
◎年  代 1937
◎产  地 美国
◎类  别 喜剧 / 爱情
◎语  言 英语
◎上映日期 1937-07-16
◎IMDb评分  7.7/10 from 2616 users
◎片  长 88 分钟
◎导  演 米切尔·莱森 Mitchell Leisen
◎编  剧 普莱斯顿·斯特奇斯 Preston Sturges
◎主  演 琪恩·亚瑟 Jean Arthur
       Edward Arnold
       Ray Milland


◎标  签 美国 | 1930s | 美国电影 | 喜剧 | 神经喜剧 | PrestonSturges | Mitchell_Leisen | JeanArthur

◎简  介  

  暂无相关剧情介绍
Video
ID                                       : 1
Format                                   : AVC
Format/Info                              : Advanced Video Codec
Format settings                          : CABAC / 5 Ref Frames
Format settings, CABAC                   : Yes
Format settings, Reference frames        : 5 frames
Codec ID                                 : V_MPEG4/ISO/AVC
Duration                                 : 1 h 28 min
Bit rate                                 : 7 373 kb/s
Width                                    : 976 pixels
Height                                   : 720 pixels
Display aspect ratio                     : 4:3
Frame rate mode                          : Constant
Frame rate                               : 23.976 (24000/1001) FPS
Color space                              : YUV
Chroma subsampling                       : 4:2:0
Bit depth                                : 8 bits
Scan type                                : Progressive
Bits/(Pixel*Frame)                       : 0.438
Stream size                              : 4.43 GiB (81%)
Writing library                          : x264 core 158 r2984 3759fcb
Encoding settings                        : cabac=1 / ref=5 / deblock=1:-3:-3 / analyse=0x3:0x113 / me=umh / subme=8 / psy=1 / psy_rd=1.10:0.00 / mixed_ref=1 / me_range=24 / chroma_me=1 / trellis=2 / 8x8dct=1 / cqm=0 / deadzone=21,11 / fast_pskip=1 / chroma_qp_offset=-2 / threads=22 / lookahead_threads=3 / sliced_threads=0 / nr=0 / decimate=1 / interlaced=0 / bluray_compat=0 / constrained_intra=0 / bframes=3 / b_pyramid=2 / b_adapt=2 / b_bias=0 / direct=3 / weightb=1 / open_gop=0 / weightp=2 / keyint=240 / keyint_min=24 / scenecut=40 / intra_refresh=0 / rc_lookahead=50 / rc=2pass / mbtree=1 / bitrate=7373 / ratetol=1.0 / qcomp=0.60 / qpmin=0 / qpmax=69 / qpstep=4 / cplxblur=20.0 / qblur=0.5 / ip_ratio=1.40 / aq=3:0.65
Default                                  : Yes
Forced                                   : No
Statistics Tags Issue                    : no_variable_data 1970-01-01 00:00:00 / no_variable_data 2010-02-22 21:41:29
FromStats_BitRate                        : 7373585
FromStats_Duration                       : 01:28:02.861000000
FromStats_FrameCount                     : 126662
FromStats_StreamSize                     : 4869203735

Audio
ID                                       : 2
Format                                   : DTS
Format/Info                              : Digital Theater Systems
Codec ID                                 : A_DTS
Duration                                 : 1 h 28 min
Bit rate mode                            : Constant
Bit rate                                 : 1 509 kb/s
Channel(s)                               : 2 channels
Channel layout                           : L R
Sampling rate                            : 48.0 kHz
Frame rate                               : 93.750 FPS (512 SPF)
Bit depth                                : 24 bits
Compression mode                         : Lossy
Stream size                              : 950 MiB (17%)
Language                                 : English
Default                                  : Yes
Forced                                   : No
Statistics Tags Issue                    : no_variable_data 1970-01-01 00:00:00 / no_variable_data 2010-02-22 21:41:29
FromStats_BitRate                        : 1509000
FromStats_Duration                       : 01:28:02.880000000
FromStats_FrameCount                     : 495270
FromStats_StreamSize                     : 996483240

Text #1
ID                                       : 3
Format                                   : UTF-8
Codec ID                                 : S_TEXT/UTF8
Codec ID/Info                            : UTF-8 Plain Text
Language                                 : English
Default                                  : No
Forced                                   : No
Statistics Tags Issue                    : no_variable_data 1970-01-01 00:00:00 / no_variable_data 2010-02-22 21:41:29
FromStats_BitRate                        : 84
FromStats_Duration                       : 01:25:48.727000000
FromStats_FrameCount                     : 1449
FromStats_StreamSize                     : 54637

Text #2
ID                                       : 4
Format                                   : UTF-8
Codec ID                                 : S_TEXT/UTF8
Codec ID/Info                            : UTF-8 Plain Text
Title                                    : SDH
Language                                 : English
Default                                  : No
Forced                                   : No
Statistics Tags Issue                    : no_variable_data 1970-01-01 00:00:00 / no_variable_data 2010-02-22 21:41:29
FromStats_BitRate                        : 87
FromStats_Duration                       : 01:25:52.355000000
FromStats_FrameCount                     : 1524
FromStats_StreamSize                     : 56265

Menu
00:00:00.000                             : en:Chapter 01
00:08:25.715                             : en:Chapter 02
00:19:31.964                             : en:Chapter 03
00:36:32.942                             : en:Chapter 04
00:47:01.653                             : en:Chapter 05
00:57:07.258                             : en:Chapter 06
01:05:35.975                             : en:Chapter 07
01:18:19.029                             : en:Chapter 08




                                                                                                                                                                                                        
                                                                                                                                                                                                                                                                                                                                                                                                                                                                                                                                                                                                                                                                                                                                                                                                                                                      
aec3c84c0ecd9e9c3bafce9c7cf8f78a.torrent (28.2 KB, 下载次数: 0)

回复

使用道具 举报

小黑屋|百度云资源论坛 ( 闽ICP备16005822号-1 )

本网站所有资源来自网络,如无意中侵犯了您的权益,请发邮件至 [email protected],立即清除相关链接

GMT+8, 2019-8-26 16:25 , Processed in 0.062856 second(s), 19 queries .

Powered by Discuz! X3.2

© 2001-2013 Comsenz Inc.

快速回复 返回顶部 返回列表