百度云资源论坛

 找回密码
 立即注册
搜索
热搜: 百度云资源
开启左侧

东部小子 A.Man.from.the.East.1972.DUBBED.720p.BluRay.x264-GUACAMOLE 5.46GB

[复制链接]
百度云资源 发表于 2019-8-10 09:34:29 | 显示全部楼层 |阅读模式





帖子完整标题:东部小子 A.Man.from.the.East.1972.DUBBED.720p.BluRay.x264-GUACAMOLE 5.46GB


◎译  名 东部小子 / Man of the East
◎片  名 E poi lo chiamarono il magnifico
◎年  代 1972
◎产  地 意大利 / 法国 / 南斯拉夫
◎类  别 喜剧 / 动作 / 西部
◎语  言 意大利语
◎上映日期 1972
◎IMDb评分  6.7/10 from 2221 users
◎片  长 Germany: 125 分钟
◎导  演 恩佐·巴博尼 Enzo Barboni
◎编  剧 恩佐·巴博尼 Enzo Barboni
◎主  演 Terence Hill


◎标  签 意大利 | 70 | 1972 | 西部片 | 西部 | 被忽视的片子 | 意大利电影 | 已下

◎简  介  

  暂无相关剧情介绍
Video
ID                                       : 1
Format                                   : AVC
Format settings                          : CABAC / 5 Ref Frames
Format settings, CABAC                   : Yes
Format settings, Reference frames        : 5 frames
Codec ID                                 : V_MPEG4/ISO/AVC
Duration                                 : 2 h 5 min
Bit rate                                 : 4 719 kb/s
Width                                    : 1 280 pixels
Height                                   : 544 pixels
Display aspect ratio                     : 2.35:1
Frame rate mode                          : Constant
Frame rate                               : 23.976 (24000/1001) FPS
Color space                              : YUV
Chroma subsampling                       : 4:2:0
Bit depth                                : 8 bits
Scan type                                : Progressive
Bits/(Pixel*Frame)                       : 0.283
Stream size                              : 4.13 GiB (76%)
Writing library                          : x264 core 157 r2969 d4099dd
Encoding settings                        : cabac=1 / ref=5 / deblock=1:0:0 / analyse=0x3:0x113 / me=umh / subme=8 / psy=1 / psy_rd=1.00:0.00 / mixed_ref=1 / me_range=16 / chroma_me=1 / trellis=2 / 8x8dct=1 / cqm=0 / deadzone=21,11 / fast_pskip=0 / chroma_qp_offset=-2 / threads=17 / lookahead_threads=2 / sliced_threads=0 / nr=0 / decimate=1 / interlaced=0 / bluray_compat=0 / constrained_intra=0 / bframes=3 / b_pyramid=2 / b_adapt=1 / b_bias=0 / direct=1 / weightb=1 / open_gop=0 / weightp=2 / keyint=250 / keyint_min=23 / scenecut=40 / intra_refresh=0 / rc_lookahead=50 / rc=2pass / mbtree=1 / bitrate=4719 / ratetol=1.0 / qcomp=0.60 / qpmin=0 / qpmax=69 / qpstep=4 / cplxblur=20.0 / qblur=0.5 / ip_ratio=1.40 / aq=1:1.00
Default                                  : Yes
Forced                                   : No

Audio
ID                                       : 2
Format                                   : DTS
Format/Info                              : Digital Theater Systems
Codec ID                                 : A_DTS
Duration                                 : 2 h 5 min
Bit rate mode                            : Constant
Bit rate                                 : 1 509 kb/s
Channel(s)                               : 2 channels
Channel layout                           : L R
Sampling rate                            : 48.0 kHz
Frame rate                               : 93.750 FPS (512 SPF)
Bit depth                                : 24 bits
Compression mode                         : Lossy
Stream size                              : 1.32 GiB (24%)
Language                                 : English
Default                                  : Yes
Forced                                   : No

Menu
00:00:00.000                             : en:00:00:00.000
00:02:11.798                             : en:00:02:11.798
00:08:47.736                             : en:00:08:47.736
00:15:52.869                             : en:00:15:52.869
00:23:03.382                             : en:00:23:03.382
00:28:49.269                             : en:00:28:49.269
00:39:10.014                             : en:00:39:10.014
00:49:43.063                             : en:00:49:43.063
01:01:52.417                             : en:01:01:52.417
01:06:37.452                             : en:01:06:37.452
01:13:50.301                             : en:01:13:50.301
01:25:29.750                             : en:01:25:29.750
01:32:55.320                             : en:01:32:55.320
01:39:53.529                             : en:01:39:53.529
01:48:56.864                             : en:01:48:56.864
02:00:51.619                             : en:02:00:51.619




                                                                                                                                                                                                        
                                                                                                                                                                                                                                                                                                                                                                                                                                                                                                                                                                                                                                                                                                                                                                                                                                                      
0648300fbfc765c255ba4eeab6dd13ee.torrent (27.91 KB, 下载次数: 0)

回复

使用道具 举报

小黑屋|百度云资源论坛 ( 闽ICP备16005822号-1 )

本网站所有资源来自网络,如无意中侵犯了您的权益,请发邮件至 [email protected],立即清除相关链接

GMT+8, 2019-8-26 16:23 , Processed in 0.078443 second(s), 19 queries .

Powered by Discuz! X3.2

© 2001-2013 Comsenz Inc.

快速回复 返回顶部 返回列表