百度云资源论坛

 找回密码
 立即注册
搜索
热搜: 百度云资源
开启左侧

咖啡未冷前/在咖啡冷掉之前 Cafe.Funiculi.Funicula.2018.720p.BluRay...

[复制链接]
百度云资源 发表于 2019-8-10 09:34:30 | 显示全部楼层 |阅读模式


帖子完整标题:咖啡未冷前/在咖啡冷掉之前 Cafe.Funiculi.Funicula.2018.720p.BluRay.x264-REGRET 4.38GB




◎译  名 咖啡未冷前 / 在咖啡冷掉之前(台)
◎片  名 コーヒーが冷めないうちに
◎年  代 2018
◎产  地 日本
◎类  别 剧情 / 爱情 / 奇幻
◎语  言 日语
◎上映日期 2018-09-21(日本)
◎IMDb评分  7.0/10 from 325 users
◎片  长 116分钟
◎导  演 冢原亚由子 Ayuko Tsukahara
◎编  剧 奥寺佐渡子 Satoko Okudera
◎主  演 有村架纯 Kasumi Arimura
       健太郎 Kentaro
       波瑠 Haru
       林遣都 Kento Hayashi
       深水元基 Motoki Fukami
       松本若菜 Wakana Matsumoto
       药师丸博子 Hiroko Yakushimaru
       吉田羊 Y? Yoshida
       松重丰 Yutaka Matsushige
       石田百合子 Yuriko Ishida


◎标  签 日本 | 温情 | 奇幻 | 2018 | 穿越 | 剧情 | 感人 | 小说改编

◎简  介  

  在某条街上,有一家咖啡店,店里有个神秘的座位。
  据说,如果坐在这个座位上,你就有可能回到自己希望回去的那一天。
  可是,回到过去,即使再努力,也无法改变已经发生的事。
  而回去的时间,仅限于从咖啡倒入杯子开始,到那杯咖啡完全变冷为止。
  性格强势的“工作狂”二美子,在真爱和现实之间犹豫不决;
  丈夫逐渐失忆的高竹,需要在过往中找到面对现实的勇气;
  离家多年、独自生活的平井,不得不在个人理想和家庭责任之间做出抉择;
  患有先天性心脏病的计,怀上了宝宝,有关爱与生命的意义,她不知自己还有多少时间去探索。
  每个人心里都有想要回去,却永远也回不去的那一天。
  如果回到那一天,你想去见谁?

◎获奖情况  

  第42届日本电影学院奖(2019)
  话题奖 最具话题演员奖 伊藤健太郎
  最佳新人 伊藤健太郎
Video
ID                                       : 1
Format                                   : AVC
Format/Info                              : Advanced Video Codec
Format settings                          : CABAC / 5 Ref Frames
Format settings, CABAC                   : Yes
Format settings, Reference frames        : 5 frames
Codec ID                                 : V_MPEG4/ISO/AVC
Duration                                 : 1 h 57 min
Bit rate                                 : 4 704 kb/s
Width                                    : 1 280 pixels
Height                                   : 688 pixels
Display aspect ratio                     : 1.85:1
Frame rate mode                          : Constant
Frame rate                               : 23.976 (24000/1001) FPS
Color space                              : YUV
Chroma subsampling                       : 4:2:0
Bit depth                                : 8 bits
Scan type                                : Progressive
Bits/(Pixel*Frame)                       : 0.223
Stream size                              : 3.85 GiB (88%)
Writing library                          : x264 core 157 r2970 5493be8
Encoding settings                        : cabac=1 / ref=5 / deblock=1:-3:-3 / analyse=0x3:0x133 / me=umh / subme=9 / psy=1 / psy_rd=1.00:0.00 / mixed_ref=1 / me_range=16 / chroma_me=1 / trellis=2 / 8x8dct=1 / cqm=0 / deadzone=21,11 / fast_pskip=0 / chroma_qp_offset=-2 / threads=21 / lookahead_threads=1 / sliced_threads=0 / nr=0 / decimate=1 / interlaced=0 / bluray_compat=0 / constrained_intra=0 / bframes=3 / b_pyramid=2 / b_adapt=1 / b_bias=0 / direct=3 / weightb=1 / open_gop=0 / weightp=2 / keyint=240 / keyint_min=24 / scenecut=40 / intra_refresh=0 / rc_lookahead=50 / rc=2pass / mbtree=1 / bitrate=4704 / ratetol=1.0 / qcomp=0.60 / qpmin=0 / qpmax=69 / qpstep=4 / cplxblur=20.0 / qblur=0.5 / ip_ratio=1.40 / aq=1:1.00
Language                                 : English
Default                                  : Yes
Forced                                   : No

Audio
ID                                       : 2
Format                                   : AC-3
Format/Info                              : Audio Coding 3
Commercial name                          : Dolby Digital
Codec ID                                 : A_AC3
Duration                                 : 1 h 57 min
Bit rate mode                            : Constant
Bit rate                                 : 640 kb/s
Channel(s)                               : 6 channels
Channel layout                           : L R C LFE Ls Rs
Sampling rate                            : 48.0 kHz
Frame rate                               : 31.250 FPS (1536 SPF)
Bit depth                                : 16 bits
Compression mode                         : Lossy
Stream size                              : 536 MiB (12%)
Language                                 : Japanese
Service kind                             : Complete Main
Default                                  : Yes
Forced                                   : No

Text
ID                                       : 3
Format                                   : UTF-8
Codec ID                                 : S_TEXT/UTF8
Codec ID/Info                            : UTF-8 Plain Text
Duration                                 : 1 h 56 min
Bit rate                                 : 33 b/s
Count of elements                        : 1324
Stream size                              : 28.7 KiB (0%)
Title                                    : English
Language                                 : English
Default                                  : Yes
Forced                                   : Yes

Menu
00:00:00.000                             : en:00:00:00.000
00:09:21.770                             : en:00:09:21.770
00:23:39.877                             : en:00:23:39.877
00:31:03.487                             : en:00:31:03.487
00:39:46.884                             : en:00:39:46.884
00:49:57.036                             : en:00:49:57.036
00:57:21.605                             : en:00:57:21.605
01:05:09.614                             : en:01:05:09.614
01:15:17.096                             : en:01:15:17.096
01:28:09.075                             : en:01:28:09.075
01:35:42.987                             : en:01:35:42.987
01:49:37.571                             : en:01:49:37.571




                                                                                                                                                                                                        
                                                                                                                                                                                                                                                                                                                                                                                                                                                                                                                                                                                                                                                                                                                                                                                                                                                      
14e7f8353994f8957d8816876f37d82b.torrent (44.65 KB, 下载次数: 0)

回复

使用道具 举报

小黑屋|百度云资源论坛 ( 闽ICP备16005822号-1 )

本网站所有资源来自网络,如无意中侵犯了您的权益,请发邮件至 [email protected],立即清除相关链接

GMT+8, 2019-8-26 16:21 , Processed in 0.064338 second(s), 19 queries .

Powered by Discuz! X3.2

© 2001-2013 Comsenz Inc.

快速回复 返回顶部 返回列表