百度云资源论坛

 找回密码
 立即注册
搜索
热搜: 百度云资源
开启左侧

醒时尖叫 I.Wake.Up.Screaming.1941.720p.BluRay.x264-PSYCHD 5.46GB

[复制链接]
百度云资源 发表于 2019-8-10 09:34:32 | 显示全部楼层 |阅读模式





帖子完整标题:醒时尖叫 I.Wake.Up.Screaming.1941.720p.BluRay.x264-PSYCHD 5.46GB



◎译  名 醒时尖叫 / Hot Spot
◎片  名 I Wake Up Screaming
◎年  代 1941
◎产  地 美国
◎类  别 爱情 / 悬疑 / 惊悚 / 犯罪 / 黑色电影
◎语  言 英语
◎上映日期 1942-11-16
◎IMDb评分  7.2/10 from 3328 users
◎片  长 82 分钟
◎导  演 H. Bruce Humberstone
◎编  剧 Dwight Taylor
◎主  演 Dwight Taylor
       Victor Mature
       Carole Landis


◎标  签 美国 | 黑色电影 | 1940s | 1941 | 悬疑 | Film-Noir | 黑色 | 犯罪

◎简  介  

  当一个默默无闻的小演员被谋杀后,她的姐姐要求警察采取行动。侦探把这女孩的经纪人列为可能的疑犯,但是事实上......
Video
ID                                       : 1
Format                                   : AVC
Format/Info                              : Advanced Video Codec
Format settings                          : CABAC / 5 Ref Frames
Format settings, CABAC                   : Yes
Format settings, Reference frames        : 5 frames
Codec ID                                 : V_MPEG4/ISO/AVC
Duration                                 : 1 h 22 min
Bit rate                                 : 7 999 kb/s
Width                                    : 976 pixels
Height                                   : 720 pixels
Display aspect ratio                     : 4:3
Frame rate mode                          : Constant
Frame rate                               : 23.976 (24000/1001) FPS
Color space                              : YUV
Chroma subsampling                       : 4:2:0
Bit depth                                : 8 bits
Scan type                                : Progressive
Bits/(Pixel*Frame)                       : 0.475
Stream size                              : 4.49 GiB (82%)
Writing library                          : x264 core 158 r2984 3759fcb
Encoding settings                        : cabac=1 / ref=5 / deblock=1:-3:-3 / analyse=0x3:0x113 / me=umh / subme=8 / psy=1 / psy_rd=1.15:0.00 / mixed_ref=1 / me_range=24 / chroma_me=1 / trellis=2 / 8x8dct=1 / cqm=0 / deadzone=21,11 / fast_pskip=1 / chroma_qp_offset=-2 / threads=22 / lookahead_threads=3 / sliced_threads=0 / nr=0 / decimate=1 / interlaced=0 / bluray_compat=0 / constrained_intra=0 / bframes=3 / b_pyramid=2 / b_adapt=2 / b_bias=0 / direct=3 / weightb=1 / open_gop=0 / weightp=2 / keyint=240 / keyint_min=24 / scenecut=40 / intra_refresh=0 / rc_lookahead=50 / rc=2pass / mbtree=1 / bitrate=7999 / ratetol=1.0 / qcomp=0.60 / qpmin=0 / qpmax=69 / qpstep=4 / cplxblur=20.0 / qblur=0.5 / ip_ratio=1.40 / aq=3:0.65
Default                                  : Yes
Forced                                   : No
Statistics Tags Issue                    : no_variable_data 1970-01-01 00:00:00 / no_variable_data 2010-02-22 21:41:29
FromStats_BitRate                        : 7997399
FromStats_Duration                       : 01:22:13.596000000
FromStats_FrameCount                     : 118288
FromStats_StreamSize                     : 4931992254

Audio
ID                                       : 2
Format                                   : DTS
Format/Info                              : Digital Theater Systems
Codec ID                                 : A_DTS
Duration                                 : 1 h 22 min
Bit rate mode                            : Constant
Bit rate                                 : 1 509 kb/s
Channel(s)                               : 2 channels
Channel layout                           : L R
Sampling rate                            : 48.0 kHz
Frame rate                               : 93.750 FPS (512 SPF)
Bit depth                                : 24 bits
Compression mode                         : Lossy
Stream size                              : 887 MiB (16%)
Language                                 : English
Default                                  : Yes
Forced                                   : No
Statistics Tags Issue                    : no_variable_data 1970-01-01 00:00:00 / no_variable_data 2010-02-22 21:41:29
FromStats_BitRate                        : 1509000
FromStats_Duration                       : 01:22:13.600000000
FromStats_FrameCount                     : 462525
FromStats_StreamSize                     : 930600300

Text #1
ID                                       : 3
Format                                   : UTF-8
Codec ID                                 : S_TEXT/UTF8
Codec ID/Info                            : UTF-8 Plain Text
Language                                 : English
Default                                  : No
Forced                                   : No
Statistics Tags Issue                    : no_variable_data 1970-01-01 00:00:00 / no_variable_data 2010-02-22 21:41:29
FromStats_BitRate                        : 85
FromStats_Duration                       : 01:20:31.905000000
FromStats_FrameCount                     : 1030
FromStats_StreamSize                     : 51560

Text #2
ID                                       : 4
Format                                   : UTF-8
Codec ID                                 : S_TEXT/UTF8
Codec ID/Info                            : UTF-8 Plain Text
Title                                    : SDH
Language                                 : English
Default                                  : No
Forced                                   : No
Statistics Tags Issue                    : no_variable_data 1970-01-01 00:00:00 / no_variable_data 2010-02-22 21:41:29
FromStats_BitRate                        : 87
FromStats_Duration                       : 01:20:31.905000000
FromStats_FrameCount                     : 1075
FromStats_StreamSize                     : 53050

Menu
00:00:00.000                             : en:Chapter 01
00:08:27.425                             : en:Chapter 02
00:17:47.693                             : en:Chapter 03
00:28:17.238                             : en:Chapter 04
00:37:57.527                             : en:Chapter 05
00:50:22.312                             : en:Chapter 06
01:02:36.045                             : en:Chapter 07
01:13:34.328                             : en:Chapter 08




                                                                                                                                                                                                        
                                                                                                                                                                                                                                                                                                                                                                                                                                                                                                                                                                                                                                                                                                                                                                                                                                                      
a69d1bd6a7d64d2d3656d57f60bf6cd9.torrent (28.04 KB, 下载次数: 0)

回复

使用道具 举报

小黑屋|百度云资源论坛 ( 闽ICP备16005822号-1 )

本网站所有资源来自网络,如无意中侵犯了您的权益,请发邮件至 [email protected],立即清除相关链接

GMT+8, 2019-8-26 16:24 , Processed in 0.063066 second(s), 19 queries .

Powered by Discuz! X3.2

© 2001-2013 Comsenz Inc.

快速回复 返回顶部 返回列表