百度云资源论坛

 找回密码
 立即注册
搜索
热搜: 百度云资源
开启左侧

小森林 Little.Forest.2018.iNTERNAL.720p.BluRay.x264-REGRET 4.38GB

[复制链接]
百度云资源 发表于 2019-8-10 09:34:33 | 显示全部楼层 |阅读模式





帖子完整标题:小森林 Little.Forest.2018.iNTERNAL.720p.BluRay.x264-REGRET 4.38GB





◎译  名 小森林 / Little Forest
◎片  名 ?? ????
◎年  代 2018
◎产  地 韩国
◎类  别 剧情
◎语  言 韩语
◎上映日期 2018-02-28(韩国)
◎IMDb评分  6.9/10 from 888 users
◎片  长 103分钟
◎导  演 林顺礼 Soonrye Yim
◎编  剧 黄成求 Seong-gu Hwang
◎主  演 金泰璃 Tae-ri Kim
      柳俊烈 Jun-yeol Ryu
      文素丽 So-ri Moon
      秦基周 Jin Ki-joo
      国志龙 Gook Ji-yong
      郑浚远 Jung Jun-won


◎标  签 韩国 | 小清新 | 小森林 | 文艺 | 美食 | 温情 | 治愈 | 2018

◎简  介  

  改编自五十岚大介的日本同名漫画的韩国新片《小森林》将由林顺礼导演执导,金泰梨主演,这也是她继《小姐》之后的下一部主演作。《小森林》也已经在日本被改编成两部电影作品。
电影讲述女主人公放下城市生活来到农村老家感受农村生活的故事,将通过林顺礼导演特有的温情视角描绘韩国的美丽 自然风景和多样的食物,因为春夏秋冬都要有所以拍摄周期约一年。林顺礼对于选择金泰梨也表达了自己的观点“金泰梨在20代女演员中演技实力和自然的魅力是很吸引人的,这个角色很适合她。”

◎获奖情况  

  第39届韩国电影青龙奖(2018)
  最佳影片(提名) 林顺礼
  最佳导演(提名) 林顺礼
  最佳女主角(提名) 金泰梨
  最佳剪辑(提名)
  最佳美术(提名)

  第54届百想艺术大赏(2018)
  电影类 最佳女主角(提名) 金泰梨
  电影类 最佳新人女演员(提名) 秦基周

  第55届韩国电影大钟奖(2018)
  最佳新人女演员(提名) 秦基周

  第5届豆瓣电影年度榜单(2018)
  评分最高的韩国电影(提名)



Video
ID                                       : 1
Format                                   : AVC
Format/Info                              : Advanced Video Codec
Format settings                          : CABAC / 5 Ref Frames
Format settings, CABAC                   : Yes
Format settings, Reference frames        : 5 frames
Codec ID                                 : V_MPEG4/ISO/AVC
Duration                                 : 1 h 43 min
Bit rate                                 : 4 532 kb/s
Width                                    : 1 280 pixels
Height                                   : 536 pixels
Display aspect ratio                     : 2.40:1
Frame rate mode                          : Constant
Frame rate                               : 23.976 (24000/1001) FPS
Color space                              : YUV
Chroma subsampling                       : 4:2:0
Bit depth                                : 8 bits
Scan type                                : Progressive
Bits/(Pixel*Frame)                       : 0.276
Stream size                              : 3.28 GiB (75%)
Writing library                          : x264 core 157 r2970 5493be8
Encoding settings                        : cabac=1 / ref=5 / deblock=1:-3:-3 / analyse=0x3:0x133 / me=umh / subme=9 / psy=1 / psy_rd=1.00:0.00 / mixed_ref=1 / me_range=16 / chroma_me=1 / trellis=2 / 8x8dct=1 / cqm=0 / deadzone=21,11 / fast_pskip=0 / chroma_qp_offset=-2 / threads=17 / lookahead_threads=1 / sliced_threads=0 / nr=0 / decimate=1 / interlaced=0 / bluray_compat=0 / constrained_intra=0 / bframes=3 / b_pyramid=2 / b_adapt=1 / b_bias=0 / direct=3 / weightb=1 / open_gop=0 / weightp=2 / keyint=240 / keyint_min=24 / scenecut=40 / intra_refresh=0 / rc_lookahead=50 / rc=2pass / mbtree=1 / bitrate=4532 / ratetol=1.0 / qcomp=0.60 / qpmin=0 / qpmax=69 / qpstep=4 / cplxblur=20.0 / qblur=0.5 / ip_ratio=1.40 / aq=1:1.00
Language                                 : English
Default                                  : Yes
Forced                                   : No

Audio
ID                                       : 2
Format                                   : DTS
Format/Info                              : Digital Theater Systems
Codec ID                                 : A_DTS
Duration                                 : 1 h 43 min
Bit rate mode                            : Constant
Bit rate                                 : 1 509 kb/s
Channel(s)                               : 6 channels
Channel layout                           : C L R Ls Rs LFE
Sampling rate                            : 48.0 kHz
Frame rate                               : 93.750 FPS (512 SPF)
Bit depth                                : 24 bits
Compression mode                         : Lossy
Stream size                              : 1.09 GiB (25%)
Language                                 : Korean
Default                                  : Yes
Forced                                   : No

Text
ID                                       : 3
Format                                   : UTF-8
Codec ID                                 : S_TEXT/UTF8
Codec ID/Info                            : UTF-8 Plain Text
Duration                                 : 1 h 38 min
Bit rate                                 : 35 b/s
Count of elements                        : 880
Stream size                              : 25.3 KiB (0%)
Title                                    : English
Language                                 : English
Default                                  : Yes
Forced                                   : Yes

Menu
00:00:00.000                             : en:00:00:00.000
00:05:33.375                             : en:00:05:33.375
00:11:29.814                             : en:00:11:29.814
00:20:35.443                             : en:00:20:35.443
00:27:15.801                             : en:00:27:15.801
00:31:01.860                             : en:00:31:01.860
00:38:04.365                             : en:00:38:04.365
00:46:53.519                             : en:00:46:53.519
00:51:45.269                             : en:00:51:45.269
00:58:38.515                             : en:00:58:38.515
01:10:13.459                             : en:01:10:13.459
01:17:04.370                             : en:01:17:04.370
01:22:14.263                             : en:01:22:14.263
01:26:17.047                             : en:01:26:17.047
01:31:32.987                             : en:01:31:32.987
01:35:34.562                             : en:01:35:34.562
01:40:27.521                             : en:01:40:27.521




                                                                                                                                                                                                        
                                                                                                                                                                                                                                                                                                                                                                                                                                                                                                                                                                                                                                                                                                                                                                                                                                                      
b6ba3890d1bf482adba08cf178b3b2c1.torrent (44.61 KB, 下载次数: 0)

回复

使用道具 举报

小黑屋|百度云资源论坛 ( 闽ICP备16005822号-1 )

本网站所有资源来自网络,如无意中侵犯了您的权益,请发邮件至 [email protected],立即清除相关链接

GMT+8, 2019-8-26 16:26 , Processed in 0.073084 second(s), 19 queries .

Powered by Discuz! X3.2

© 2001-2013 Comsenz Inc.

快速回复 返回顶部 返回列表