百度云资源论坛

 找回密码
 立即注册
搜索
热搜: 百度云资源
开启左侧

塞西亚:复仇之剑 The.Last.Warrior.2018.720p.BluRay.x264-ViRGO 7.65GB

[复制链接]
百度云资源 发表于 2019-8-11 09:52:39 | 显示全部楼层 |阅读模式
-->




帖子完整标题:塞西亚:复仇之剑 The.Last.Warrior.2018.720p.BluRay.x264-ViRGO 7.65GB




◎译  名 塞西亚:复仇之剑 / The Last Warrior / The Scythian
◎片  名 Скиф
◎年  代 2018
◎产  地 俄罗斯
◎类  别 剧情 / 动作 / 奇幻
◎语  言 俄语
◎上映日期 2018-01-18(俄罗斯)
◎IMDb评分  6.2/10 from 1606 users
◎片  长 105分钟
◎导  演 拉斯塔姆·莫沙菲尔 Rustam Mosafir
◎编  剧 瓦迪姆·格洛瓦诺夫 Vadim Golovanov / 拉斯塔姆·莫沙菲尔 Rustam Mosafir
◎主  演 阿列克谢·法迪耶夫 Aleksey Faddeev
       亚历山大·库兹涅佐夫 Aleksandr Kuznetsov
       尤里·楚里洛 Yuriy Tsurilo
       伊兹马洛娃·瓦西里萨 Izmaylova Vasilisa
       拉斯塔姆·莫沙菲尔 Rustam Mosafir


◎标  签 俄罗斯 | 动作 | 暴力 | 战争 | 古装 | 奇幻 | 历史 | 2018

◎简  介  

  11世纪的东欧,整个欧洲正处于北欧维京人肆虐的时代。无尽的村庄、城市被灭绝,而身为主角的一群年轻杰出的勇士发下誓言维护正义,他们到处打击维京人。本片通过大量的打斗、古装战争场面的描述,再现了史诗般恢弘的战役,让观众牢牢记住曾经的英雄。
Video
ID                                       : 1
Format                                   : AVC
Format/Info                              : Advanced Video Codec
Format settings                          : CABAC / 5 Ref Frames
Format settings, CABAC                   : Yes
Format settings, Reference frames        : 5 frames
Codec ID                                 : V_MPEG4/ISO/AVC
Duration                                 : 1 h 44 min
Bit rate                                 : 7 449 kb/s
Width                                    : 1 280 pixels
Height                                   : 536 pixels
Display aspect ratio                     : 2.40:1
Frame rate mode                          : Constant
Frame rate                               : 23.976 (24000/1001) FPS
Color space                              : YUV
Chroma subsampling                       : 4:2:0
Bit depth                                : 8 bits
Scan type                                : Progressive
Bits/(Pixel*Frame)                       : 0.453
Stream size                              : 5.44 GiB (71%)
Writing library                          : x264 core 157 r2970 5493be8
Encoding settings                        : cabac=1 / ref=5 / deblock=1:0:0 / analyse=0x3:0x113 / me=umh / subme=7 / psy=1 / psy_rd=1.00:0.00 / mixed_ref=1 / me_range=16 / chroma_me=1 / trellis=1 / 8x8dct=1 / cqm=0 / deadzone=21,11 / fast_pskip=0 / chroma_qp_offset=-2 / threads=12 / lookahead_threads=2 / sliced_threads=0 / nr=0 / decimate=1 / interlaced=0 / bluray_compat=0 / constrained_intra=0 / bframes=3 / b_pyramid=2 / b_adapt=1 / b_bias=0 / direct=3 / weightb=1 / open_gop=0 / weightp=2 / keyint=240 / keyint_min=23 / scenecut=40 / intra_refresh=0 / rc_lookahead=50 / rc=2pass / mbtree=1 / bitrate=7449 / ratetol=1.0 / qcomp=0.60 / qpmin=0 / qpmax=69 / qpstep=4 / cplxblur=20.0 / qblur=0.5 / ip_ratio=1.40 / aq=1:1.00
Language                                 : English
Default                                  : Yes
Forced                                   : No

Audio #1
ID                                       : 2
Format                                   : DTS
Format/Info                              : Digital Theater Systems
Codec ID                                 : A_DTS
Duration                                 : 1 h 44 min
Bit rate mode                            : Constant
Bit rate                                 : 1 509 kb/s
Channel(s)                               : 6 channels
Channel layout                           : C L R Ls Rs LFE
Sampling rate                            : 48.0 kHz
Frame rate                               : 93.750 FPS (512 SPF)
Bit depth                                : 24 bits
Compression mode                         : Lossy
Stream size                              : 1.10 GiB (14%)
Language                                 : Russian
Default                                  : Yes
Forced                                   : No

Audio #2
ID                                       : 3
Format                                   : DTS
Format/Info                              : Digital Theater Systems
Codec ID                                 : A_DTS
Duration                                 : 1 h 44 min
Bit rate mode                            : Constant
Bit rate                                 : 1 509 kb/s
Channel(s)                               : 6 channels
Channel layout                           : C L R Ls Rs LFE
Sampling rate                            : 48.0 kHz
Frame rate                               : 93.750 FPS (512 SPF)
Bit depth                                : 24 bits
Compression mode                         : Lossy
Stream size                              : 1.10 GiB (14%)
Language                                 : English
Default                                  : No
Forced                                   : No

Text #1
ID                                       : 4
Format                                   : UTF-8
Codec ID                                 : S_TEXT/UTF8
Codec ID/Info                            : UTF-8 Plain Text
Duration                                 : 1 h 35 min
Bit rate                                 : 22 b/s
Count of elements                        : 424
Stream size                              : 15.6 KiB (0%)
Language                                 : English
Default                                  : Yes
Forced                                   : Yes

Text #2
ID                                       : 5
Format                                   : UTF-8
Codec ID                                 : S_TEXT/UTF8
Codec ID/Info                            : UTF-8 Plain Text
Duration                                 : 1 h 44 min
Bit rate                                 : 34 b/s
Count of elements                        : 1042
Stream size                              : 26.0 KiB (0%)
Language                                 : English
Default                                  : No
Forced                                   : No

Menu
00:00:00.000                             : en:00:00:00.000
00:18:33.696                             : en:00:18:33.696
00:32:34.703                             : en:00:32:34.703
00:45:40.071                             : en:00:45:40.071
01:05:26.631                             : en:01:05:26.631
01:23:03.854                             : en:01:23:03.854




                                                                                                                                                                                                        
                                                                                                                                                                                                                                                                                                                                                                                                                                                                                                                                                                                                                                                                                                                                                                                                                                                      
532cc9bea326206cdf1bf4da163437b9.torrent (38.85 KB, 下载次数: 0)

回复

使用道具 举报

小黑屋|百度云资源论坛 ( 闽ICP备16005822号-1 )

本网站所有资源来自网络,如无意中侵犯了您的权益,请发邮件至 [email protected],立即清除相关链接

GMT+8, 2019-8-26 16:25 , Processed in 0.061871 second(s), 19 queries .

Powered by Discuz! X3.2

© 2001-2013 Comsenz Inc.

快速回复 返回顶部 返回列表