百度云资源论坛

 找回密码
 立即注册
搜索
热搜: 百度云资源
开启左侧

反攻美国/愤怒战士 Extreme.Prejudice.1987.720p.BluRay.x264-GUACAMOLE 4...

[复制链接]
百度云资源 发表于 2019-8-11 09:52:41 | 显示全部楼层 |阅读模式
-->




帖子完整标题:反攻美国/愤怒战士 Extreme.Prejudice.1987.720p.BluRay.x264-GUACAMOLE 4.36GB




◎译  名 反攻美国 / 愤怒战士
◎片  名 Extreme Prejudice
◎年  代 1987
◎产  地 美国
◎类  别 剧情 / 动作 / 犯罪 / 西部
◎语  言 英语 / 西班牙语
◎上映日期 1987-04-24
◎IMDb评分  6.6/10 from 5547 users
◎片  长 96 分钟
◎导  演 沃尔特·希尔 Walter Hill
◎编  剧 Deric Washburn / Harry Kleiner
◎主  演 尼克·诺特 Nick Nolte
       鲍沃斯·布斯 Powers Boothe
       迈克尔·艾恩塞德 Michael Ironside


◎标  签 美国 | 犯罪 | 动作 | 远古类型西部片 | 沃尔特_希尔 | 剧情 | 西部片 | 美国电影

◎简  介  

  尼克诺特饰演的德州骑警,和鲍尔斯布思所饰的大毒枭原本是儿时玩伴,但如今却成了站在法律两端的死对头,两人即将在德/墨边境展开一场空前的生死对决。
Video
ID                                       : 1
Format                                   : AVC
Format/Info                              : Advanced Video Codec
Format settings                          : CABAC / 5 Ref Frames
Format settings, CABAC                   : Yes
Format settings, Reference frames        : 5 frames
Codec ID                                 : V_MPEG4/ISO/AVC
Duration                                 : 1 h 44 min
Bit rate                                 : 5 296 kb/s
Width                                    : 1 280 pixels
Height                                   : 696 pixels
Display aspect ratio                     : 1.85:1
Frame rate mode                          : Constant
Frame rate                               : 23.976 (24000/1001) FPS
Color space                              : YUV
Chroma subsampling                       : 4:2:0
Bit depth                                : 8 bits
Scan type                                : Progressive
Bits/(Pixel*Frame)                       : 0.248
Stream size                              : 3.88 GiB (89%)
Writing library                          : x264 core 157 r2969 d4099dd
Encoding settings                        : cabac=1 / ref=5 / deblock=1:0:0 / analyse=0x3:0x113 / me=umh / subme=8 / psy=1 / psy_rd=1.00:0.00 / mixed_ref=1 / me_range=16 / chroma_me=1 / trellis=2 / 8x8dct=1 / cqm=0 / deadzone=21,11 / fast_pskip=0 / chroma_qp_offset=-2 / threads=22 / lookahead_threads=3 / sliced_threads=0 / nr=0 / decimate=1 / interlaced=0 / bluray_compat=0 / constrained_intra=0 / bframes=3 / b_pyramid=2 / b_adapt=1 / b_bias=0 / direct=1 / weightb=1 / open_gop=0 / weightp=2 / keyint=250 / keyint_min=23 / scenecut=40 / intra_refresh=0 / rc_lookahead=50 / rc=2pass / mbtree=1 / bitrate=5296 / ratetol=1.0 / qcomp=0.60 / qpmin=0 / qpmax=69 / qpstep=4 / cplxblur=20.0 / qblur=0.5 / ip_ratio=1.40 / aq=1:1.00
Default                                  : Yes
Forced                                   : No

Audio
ID                                       : 2
Format                                   : AC-3
Format/Info                              : Audio Coding 3
Commercial name                          : Dolby Digital
Codec ID                                 : A_AC3
Duration                                 : 1 h 44 min
Bit rate mode                            : Constant
Bit rate                                 : 640 kb/s
Channel(s)                               : 2 channels
Channel layout                           : L R
Sampling rate                            : 48.0 kHz
Frame rate                               : 31.250 FPS (1536 SPF)
Bit depth                                : 16 bits
Compression mode                         : Lossy
Stream size                              : 481 MiB (11%)
Language                                 : English
Service kind                             : Complete Main
Default                                  : Yes
Forced                                   : No

Menu
00:00:00.000                             : en:00:00:00.000
00:06:16.251                             : en:00:06:16.251
00:12:37.799                             : en:00:12:37.799
00:22:21.215                             : en:00:22:21.215
00:29:35.774                             : en:00:29:35.774
00:36:56.548                             : en:00:36:56.548
00:40:43.149                             : en:00:40:43.149
00:46:08.391                             : en:00:46:08.391
00:51:40.514                             : en:00:51:40.514
01:02:27.786                             : en:01:02:27.786
01:11:45.760                             : en:01:11:45.760
01:18:12.062                             : en:01:18:12.062
01:22:05.379                             : en:01:22:05.379
01:30:46.107                             : en:01:30:46.107
01:37:04.694                             : en:01:37:04.694
01:41:13.567                             : en:01:41:13.567




                                                                                                                                                                                                        
                                                                                                                                                                                                                                                                                                                                                                                                                                                                                                                                                                                                                                                                                                                                                                                                                                                      
56f337e972c6d711d8243debace072b0.torrent (44.32 KB, 下载次数: 0)

回复

使用道具 举报

小黑屋|百度云资源论坛 ( 闽ICP备16005822号-1 )

本网站所有资源来自网络,如无意中侵犯了您的权益,请发邮件至 [email protected],立即清除相关链接

GMT+8, 2019-8-26 16:22 , Processed in 0.060194 second(s), 19 queries .

Powered by Discuz! X3.2

© 2001-2013 Comsenz Inc.

快速回复 返回顶部 返回列表