百度云资源论坛

 找回密码
 立即注册
搜索
热搜: 百度云资源
开启左侧

解忧杂货店 Namiya.2017.720p.BluRay.x264-REGRET 4.37GB

[复制链接]
百度云资源 发表于 2019-8-11 09:52:42 | 显示全部楼层 |阅读模式
-->




帖子完整标题:解忧杂货店 Namiya.2017.720p.BluRay.x264-REGRET 4.37GB





◎译  名 Miracles of the Namiya General Store
◎片  名 解忧杂货店
◎年  代 2017
◎产  地 中国大陆
◎类  别 剧情 / 奇幻
◎语  言 汉语普通话
◎上映日期 2017-12-29(中国大陆)
◎IMDb评分  5.0/10 from 290 users
◎片  长 109分钟
◎导  演 韩杰 Jie Han
◎编  剧 宋啸 Xiao Song / 东野圭吾 Keigo Higashino / 孙思雨 Siyu Sun / 朱思溢 Siyi Zhu
◎主  演 王俊凯 Karry Wang
       迪丽热巴 Dilraba
       董子健 Zijian Dong
       李鸿其 Hong-Chi Lee
       董李无忧 Wuyou Dongli
       成龙 Jackie Chan
       秦昊 Hao Qin
       陈都灵 Duling Chen
       郝蕾 Lei Hao
       李梦 Meng Li
       成泰燊 Taishen Cheng
       高华阳 Zack Gao
       潘斌龙 Bin-long Pan
       孟慧圆 Huiyuan Meng
       孙小野


◎标  签 暖心 | 治愈 | 小说改编 | 温情 | 感动 | 国产 | 中国大陆 | 2017

◎简  介  

  改编自东野圭吾原著同名小说《解忧杂货店》,讲述了在一家僻静街道旁的杂货店,只要写下烦恼投进店前门卷帘门的投信口,第二天就会在店后的牛奶箱里得到回答。某个夜晚,三个身在迷途的年轻人阿杰、小波、彤彤无意闯入,没想到开启了时光隧道,从收到来自过去的第一封咨询信开始,在不断的回信和收信过程中,过去链接了未来,犹豫是否该坚持音乐梦想的秦朗、是否该和家人因逃债远走他乡的浩博、是否应该放弃舞女工作的晴美都从他们的回信建议做出了选择,找到了心灵的方向,不经意间也串联了所有人的人生。同时这三个年轻人也收到了对于自己困惑的解答。
Video
ID                                       : 1
Format                                   : AVC
Format/Info                              : Advanced Video Codec
Format settings                          : CABAC / 5 Ref Frames
Format settings, CABAC                   : Yes
Format settings, Reference frames        : 5 frames
Codec ID                                 : V_MPEG4/ISO/AVC
Duration                                 : 1 h 50 min
Bit rate                                 : 5 049 kb/s
Width                                    : 1 280 pixels
Height                                   : 536 pixels
Display aspect ratio                     : 2.40:1
Frame rate mode                          : Constant
Frame rate                               : 24.000 FPS
Color space                              : YUV
Chroma subsampling                       : 4:2:0
Bit depth                                : 8 bits
Scan type                                : Progressive
Bits/(Pixel*Frame)                       : 0.307
Stream size                              : 3.88 GiB (89%)
Writing library                          : x264 core 157 r2970 5493be8
Encoding settings                        : cabac=1 / ref=5 / deblock=1:-3:-3 / analyse=0x3:0x133 / me=umh / subme=9 / psy=1 / psy_rd=1.00:0.00 / mixed_ref=1 / me_range=16 / chroma_me=1 / trellis=2 / 8x8dct=1 / cqm=0 / deadzone=21,11 / fast_pskip=0 / chroma_qp_offset=-2 / threads=17 / lookahead_threads=1 / sliced_threads=0 / nr=0 / decimate=1 / interlaced=0 / bluray_compat=0 / constrained_intra=0 / bframes=3 / b_pyramid=2 / b_adapt=1 / b_bias=0 / direct=3 / weightb=1 / open_gop=0 / weightp=2 / keyint=240 / keyint_min=24 / scenecut=40 / intra_refresh=0 / rc_lookahead=50 / rc=2pass / mbtree=1 / bitrate=5049 / ratetol=1.0 / qcomp=0.60 / qpmin=0 / qpmax=69 / qpstep=4 / cplxblur=20.0 / qblur=0.5 / ip_ratio=1.40 / aq=1:1.00
Language                                 : English
Default                                  : Yes
Forced                                   : No

Audio
ID                                       : 2
Format                                   : AC-3
Format/Info                              : Audio Coding 3
Commercial name                          : Dolby Digital
Codec ID                                 : A_AC3
Duration                                 : 1 h 49 min
Bit rate mode                            : Constant
Bit rate                                 : 640 kb/s
Channel(s)                               : 6 channels
Channel layout                           : L R C LFE Ls Rs
Sampling rate                            : 48.0 kHz
Frame rate                               : 31.250 FPS (1536 SPF)
Bit depth                                : 16 bits
Compression mode                         : Lossy
Stream size                              : 503 MiB (11%)
Language                                 : Chinese
Service kind                             : Complete Main
Default                                  : Yes
Forced                                   : No

Text
ID                                       : 3
Format                                   : UTF-8
Codec ID                                 : S_TEXT/UTF8
Codec ID/Info                            : UTF-8 Plain Text
Duration                                 : 1 h 41 min
Bit rate                                 : 48 b/s
Count of elements                        : 1633
Stream size                              : 36.4 KiB (0%)
Title                                    : English
Language                                 : English
Default                                  : Yes
Forced                                   : Yes

Menu
00:00:00.000                             : en:00:00:00.000
00:05:22.625                             : en:00:05:22.625
00:09:15.250                             : en:00:09:15.250
00:16:52.375                             : en:00:16:52.375
00:23:17.250                             : en:00:23:17.250
00:29:57.458                             : en:00:29:57.458
00:34:36.083                             : en:00:34:36.083
00:38:02.750                             : en:00:38:02.750
00:43:03.958                             : en:00:43:03.958
00:50:16.750                             : en:00:50:16.750
00:55:13.542                             : en:00:55:13.542
00:59:05.417                             : en:00:59:05.417
01:05:15.667                             : en:01:05:15.667
01:09:47.208                             : en:01:09:47.208
01:15:12.417                             : en:01:15:12.417
01:20:39.417                             : en:01:20:39.417
01:28:38.708                             : en:01:28:38.708
01:33:25.750                             : en:01:33:25.750
01:38:57.167                             : en:01:38:57.167
01:44:10.417                             : en:01:44:10.417




                                                                                                                                                                                                        
                                                                                                                                                                                                                                                                                                                                                                                                                                                                                                                                                                                                                                                                                                                                                                                                                                                      
0e2d562dbb6f8b7c193c9792a9634241.torrent (44.22 KB, 下载次数: 0)

回复

使用道具 举报

小黑屋|百度云资源论坛 ( 闽ICP备16005822号-1 )

本网站所有资源来自网络,如无意中侵犯了您的权益,请发邮件至 [email protected],立即清除相关链接

GMT+8, 2019-8-26 16:24 , Processed in 0.062987 second(s), 19 queries .

Powered by Discuz! X3.2

© 2001-2013 Comsenz Inc.

快速回复 返回顶部 返回列表