百度云资源论坛

 找回密码
 立即注册
搜索
热搜: 百度云资源
开启左侧

别让我回家 Dont.Take.Me.Home.2017.1080p.BluRay.x264-MOOVEE 5.47GB

[复制链接]
百度云资源 发表于 2019-8-11 09:53:04 | 显示全部楼层 |阅读模式





帖子完整标题:别让我回家 Dont.Take.Me.Home.2017.1080p.BluRay.x264-MOOVEE 5.47GB


◎译  名 别让我回家
◎片  名 Don't Take Me Home
◎年  代 2017
◎产  地 英国
◎类  别 纪录片 / 运动
◎语  言 英语
◎上映日期 2017-03-01(英国)
◎IMDb评分  6.7/10 from 273 users
◎片  长 86分钟
◎导  演 Jonny Owen
◎主  演 加雷斯·贝尔 Gareth Bale
       克里斯·科尔曼 Chris Coleman
       阿隆·拉姆齐 Aaron Ramsey
       克里斯蒂亚诺·罗纳尔多 Cristiano Ronaldo


◎标  签 纪录片 | 英国 | SportsDocumentaries | 英国电影 | 紀錄片 | 电影 | 商&科 | 体育

◎简  介  

  The incredible true story of the Welsh football team‘s 2016 Euros.
Video
ID                                       : 1
Format                                   : AVC
Format/Info                              : Advanced Video Codec
Format settings, CABAC                   : Yes
Format settings, ReFrames                : 4 frames
Codec ID                                 : V_MPEG4/ISO/AVC
Duration                                 : 1h 21mn
Bit rate                                 : 8 770 Kbps
Width                                    : 1 920 pixels
Height                                   : 1 080 pixels
Display aspect ratio                     : 16:9
Frame rate mode                          : Constant
Frame rate                               : 25.000 fps
Color space                              : YUV
Chroma subsampling                       : 4:2:0
Bit depth                                : 8 bits
Scan type                                : Progressive
Bits/(Pixel*Frame)                       : 0.169
Stream size                              : 5.02 GiB (92%)
Writing library                          : x264 core 152 r2851kMod ba24899
Encoding settings                        : cabac=1 / ref=4 / deblock=1:0:0 / analyse=0x3:0x133 / me=umh / subme=8 / psy=1 / fade_compensate=0.00 / psy_rd=1.00:0.00 / mixed_ref=1 / me_range=16 / chroma_me=1 / trellis=1 / 8x8dct=1 / cqm=0 / deadzone=21,11 / fast_pskip=0 / chroma_qp_offset=-2 / threads=18 / lookahead_threads=3 / sliced_threads=0 / nr=0 / decimate=1 / interlaced=0 / bluray_compat=0 / constrained_intra=0 / bframes=3 / b_pyramid=2 / b_adapt=1 / b_bias=0 / direct=1 / weightb=1 / open_gop=0 / weightp=2 / keyint=250 / keyint_min=25 / scenecut=40 / intra_refresh=0 / rc_lookahead=40 / rc=2pass / mbtree=1 / bitrate=8770 / ratetol=1.0 / qcomp=0.60 / qpmin=0 / qpmax=69 / qpstep=4 / cplxblur=20.0 / qblur=0.5 / ip_ratio=1.40 / aq=1:1.00
Language                                 : English
Default                                  : Yes
Forced                                   : No

Audio
ID                                       : 2
Format                                   : DTS
Format/Info                              : Digital Theater Systems
Mode                                     : 16
Format settings, Endianness              : Big
Codec ID                                 : A_DTS
Duration                                 : 1h 21mn
Bit rate mode                            : Constant
Bit rate                                 : 768 Kbps
Channel(s)                               : 6 channels
Channel positions                        : Front: L C R, Side: L R, LFE
Sampling rate                            : 48.0 KHz
Frame rate                               : 93.750 fps (512 spf)
Bit depth                                : 16 bits
Compression mode                         : Lossy
Stream size                              : 450 MiB (8%)
Title                                    : English
Language                                 : English
Default                                  : Yes
Forced                                   : No

Menu
00:00:00.000                             : en:00:00:00.000
00:10:10.640                             : en:00:10:10.640
00:20:58.640                             : en:00:20:58.640
00:29:55.720                             : en:00:29:55.720
00:39:26.800                             : en:00:39:26.800
00:50:28.560                             : en:00:50:28.560
01:02:04.640                             : en:01:02:04.640
01:13:45.120                             : en:01:13:45.120




                                                                                                                                                                                                        
                                                                                                                                                                                                                                                                                                                                                                                                                                                                                                                                                                                                                                                                                                                                                                                                                                                      
28cbff36cbadcd29a83f030ddaa11754.torrent (110.33 KB, 下载次数: 0)

回复

使用道具 举报

小黑屋|百度云资源论坛 ( 闽ICP备16005822号-1 )

本网站所有资源来自网络,如无意中侵犯了您的权益,请发邮件至 [email protected],立即清除相关链接

GMT+8, 2019-8-25 05:17 , Processed in 0.060748 second(s), 19 queries .

Powered by Discuz! X3.2

© 2001-2013 Comsenz Inc.

快速回复 返回顶部 返回列表