百度云资源论坛

 找回密码
 立即注册
搜索
热搜: 百度云资源
开启左侧

逃狱金刚断魂枪 A.Long.Ride.from.Hell.1968.DUBBED.1080p.BluRay.x264.DTS...

[复制链接]
百度云资源 发表于 2019-8-11 09:53:06 | 显示全部楼层 |阅读模式




帖子完整标题:逃狱金刚断魂枪 A.Long.Ride.from.Hell.1968.DUBBED.1080p.BluRay.x264.DTS-FGT 8.20GB





◎译  名 逃狱金刚断魂枪 / A Long Ride from Hell
◎片  名 Vivo per la tua morte
◎年  代 1968
◎产  地 意大利
◎类  别 西部
◎语  言 意大利语
◎上映日期 1968-04-05
◎片  长 Spain: 95 分钟
◎导  演 卡米洛·巴佐尼 Camillo Bazzoni
◎编  剧 Gordon D. Shirreffs / 罗伯托·纳塔莱 Roberto Natale / 史蒂夫·李维斯 Steve Reeves
◎主  演 Steve Reeves
       Wayde Preston
       Guido Lollobrigida
       Mimmo Palmara
       Silvana Venturelli
       Nello Pazzafini
       Franco Fantasia
       Enzo Fiermonte
       Aldo Sambrell
       欧露莎尔芭·奈丽


◎标  签 西部 | 1968 | 西部荒原 | 经典老片 | 意大利 | 动作运动 | BDMV | 6.7

◎简  介  

  Mike Sturges and his younger brother, Roy, are sentenced to Yuma Penitentiary on a trumped-up train robbery charge. Both endure cruel treatment before Mike escapes to extract revenge on their enemies.
Video
ID                                       : 1
Format                                   : AVC
Format/Info                              : Advanced Video Codec
Format settings, CABAC                   : Yes
Format settings, ReFrames                : 4 frames
Codec ID                                 : V_MPEG4/ISO/AVC
Duration                                 : 1h 30mn
Bit rate                                 : 11.5 Mbps
Width                                    : 1 920 pixels
Height                                   : 1 080 pixels
Display aspect ratio                     : 16:9
Frame rate mode                          : Constant
Frame rate                               : 23.976 (24000/1001) fps
Color space                              : YUV
Chroma subsampling                       : 4:2:0
Bit depth                                : 8 bits
Scan type                                : Progressive
Bits/(Pixel*Frame)                       : 0.231
Stream size                              : 7.08 GiB (86%)
Title                                    : A.Long.Ride.from.Hell.1968.1080p.BluRay.x264.DTS-FGT
Writing library                          : x264 core 148 r2694 3b70645
Encoding settings                        : cabac=1 / ref=4 / deblock=1:-2:-2 / analyse=0x3:0x113 / me=umh / subme=7 / psy=1 / psy_rd=1.00:0.15 / mixed_ref=1 / me_range=16 / chroma_me=1 / trellis=1 / 8x8dct=1 / cqm=0 / deadzone=21,11 / fast_pskip=1 / chroma_qp_offset=-3 / threads=24 / lookahead_threads=3 / sliced_threads=0 / nr=0 / decimate=1 / interlaced=0 / bluray_compat=0 / constrained_intra=0 / bframes=3 / b_pyramid=2 / b_adapt=2 / b_bias=0 / direct=3 / weightb=1 / open_gop=0 / weightp=2 / keyint=250 / keyint_min=25 / scenecut=40 / intra_refresh=0 / rc_lookahead=50 / rc=abr / mbtree=1 / bitrate=11500 / ratetol=1.0 / qcomp=0.60 / qpmin=0 / qpmax=69 / qpstep=4 / vbv_maxrate=31250 / vbv_bufsize=31250 / nal_hrd=none / filler=0 / ip_ratio=1.40 / aq=1:1.00
Language                                 : English
Default                                  : Yes
Forced                                   : No

Audio
ID                                       : 2
Format                                   : DTS
Format/Info                              : Digital Theater Systems
Mode                                     : 16
Format settings, Endianness              : Big
Codec ID                                 : A_DTS
Duration                                 : 1h 30mn
Bit rate mode                            : Constant
Bit rate                                 : 1 509 Kbps
Channel(s)                               : 2 channels
Channel positions                        : Front: L R
Sampling rate                            : 48.0 KHz
Frame rate                               : 93.750 fps (512 spf)
Bit depth                                : 24 bits
Compression mode                         : Lossy
Stream size                              : 978 MiB (12%)
Title                                    : A.Long.Ride.from.Hell.1968.1080p.BluRay.x264.DTS-FGT
Language                                 : English
Default                                  : Yes
Forced                                   : No

Menu
00:00:00.000                             : en:Chapter 01
00:04:34.941                             : en:Chapter 02
00:10:44.644                             : en:Chapter 03
00:13:55.251                             : en:Chapter 04
00:22:38.106                             : en:Chapter 05
00:30:28.159                             : en:Chapter 06
00:33:41.185                             : en:Chapter 07
00:42:28.504                             : en:Chapter 08
00:48:28.447                             : en:Chapter 09
00:56:58.998                             : en:Chapter 10
01:03:24.425                             : en:Chapter 11
01:13:10.928                             : en:Chapter 12
01:20:45.382                             : en:Chapter 13
01:26:10.290                             : en:Chapter 14




                                                                                                                                                                                                        
                                                                                                                                                                                                                                                                                                                                                                                                                                                                                                                                                                                                                                                                                                                                                                                                                                                      
9de974d0c6abcf81fda23128f5a7d871.torrent (82.64 KB, 下载次数: 0)

回复

使用道具 举报

小黑屋|百度云资源论坛 ( 闽ICP备16005822号-1 )

本网站所有资源来自网络,如无意中侵犯了您的权益,请发邮件至 [email protected],立即清除相关链接

GMT+8, 2019-8-25 05:19 , Processed in 0.060119 second(s), 19 queries .

Powered by Discuz! X3.2

© 2001-2013 Comsenz Inc.

快速回复 返回顶部 返回列表