百度云资源论坛

 找回密码
 立即注册
搜索
热搜: 百度云资源
开启左侧

深蓝色海洋里的海豚 Dolphins.in.the.Deep.Blue.Ocean.2009.1080p.BluRay...

[复制链接]
百度云资源 发表于 2019-8-11 09:53:07 | 显示全部楼层 |阅读模式




帖子完整标题:深蓝色海洋里的海豚 Dolphins.in.the.Deep.Blue.Ocean.2009.1080p.BluRay.x264-PussyFoot 5.47GB



◎译  名 深蓝色海洋里的海豚 / Dolphins 3D / 深海精灵
◎片  名 Dolphins in the Deep Blue Ocean
◎年  代 2009
◎产  地 德国
◎类  别 纪录片
◎语  言 德语 / 英语
◎上映日期 2009
◎IMDb评分  6.4/10 from 27 users
◎片  长 60分钟
◎导  演 Britta Leimbach

◎标  签 纪录片 | 海洋 | 德国 | (2009) | (DVD) | 自然 | 电影 | 【3.0】

◎简  介  

  纯音乐风光欣赏片。无解说,不需要字幕。启发灵感的,顽皮的,强健的,迷人的,高度智能化的动物:海豚,和我们人类有着特别的灵犀沟通。在这张杰出的影碟里,你可以看见以色列埃拉特的海豚礁附近这种雄壮的动物在自然环境欢蹦乱跳,那里是世界上最大的海洋保护区域。观察海豚如何跳舞,和摄像头嬉戏。从来没有更近距离看到这些动物了!这梦幻般的高清晰度作品有着最高标准的图像和声音质量。你有一个长期和亲密的机会看看将近8大海豚群,并近距离观看他们的特殊活动。
Video
ID                                       : 1
Format                                   : AVC
Format/Info                              : Advanced Video Codec
Format settings, CABAC                   : Yes
Format settings, ReFrames                : 4 frames
Codec ID                                 : V_MPEG4/ISO/AVC
Duration                                 : 1h 0mn
Bit rate                                 : 11.5 Mbps
Width                                    : 1 920 pixels
Height                                   : 1 080 pixels
Display aspect ratio                     : 16:9
Frame rate mode                          : Constant
Frame rate                               : 23.976 (24000/1001) fps
Color space                              : YUV
Chroma subsampling                       : 4:2:0
Bit depth                                : 8 bits
Scan type                                : Progressive
Bits/(Pixel*Frame)                       : 0.230
Stream size                              : 4.72 GiB (86%)
Writing library                          : x264 core 148 r2762 90a61ec
Encoding settings                        : cabac=1 / ref=4 / deblock=1:-2:-2 / analyse=0x3:0x113 / me=umh / subme=8 / psy=1 / psy_rd=1.00:0.00 / mixed_ref=1 / me_range=16 / chroma_me=1 / trellis=2 / 8x8dct=1 / cqm=0 / deadzone=21,11 / fast_pskip=1 / chroma_qp_offset=-2 / threads=12 / lookahead_threads=2 / sliced_threads=0 / nr=0 / decimate=1 / interlaced=0 / bluray_compat=0 / constrained_intra=0 / bframes=3 / b_pyramid=2 / b_adapt=2 / b_bias=0 / direct=3 / weightb=1 / open_gop=0 / weightp=2 / keyint=240 / keyint_min=24 / scenecut=40 / intra_refresh=0 / rc_lookahead=50 / rc=2pass / mbtree=1 / bitrate=11454 / ratetol=1.0 / qcomp=0.60 / qpmin=0 / qpmax=69 / qpstep=4 / cplxblur=20.0 / qblur=0.5 / ip_ratio=1.40 / aq=1:1.00
Language                                 : English
Default                                  : Yes
Forced                                   : No

Audio
ID                                       : 2
Format                                   : DTS
Format/Info                              : Digital Theater Systems
Mode                                     : 16
Format settings, Endianness              : Big
Codec ID                                 : A_DTS
Duration                                 : 1h 0mn
Bit rate mode                            : Constant
Bit rate                                 : 1 509 Kbps
Channel(s)                               : 6 channels
Channel positions                        : Front: L C R, Side: L R, LFE
Sampling rate                            : 48.0 KHz
Frame rate                               : 93.750 fps (512 spf)
Bit depth                                : 24 bits
Compression mode                         : Lossy
Stream size                              : 651 MiB (12%)
Language                                 : English
Default                                  : Yes
Forced                                   : No

Menu
00:00:00.000                             : en:00:00:00.000
00:12:01.638                             : en:00:12:01.638
00:36:11.586                             : en:00:36:11.586
00:49:19.206                             : en:00:49:19.206




                                                                                                                                                                                                        
                                                                                                                                                                                                                                                                                                                                                                                                                                                                                                                                                                                                                                                                                                                                                                                                                                                      
d9729169c70b0d6c3efd067c68da9683.torrent (109.96 KB, 下载次数: 0)

回复

使用道具 举报

小黑屋|百度云资源论坛 ( 闽ICP备16005822号-1 )

本网站所有资源来自网络,如无意中侵犯了您的权益,请发邮件至 [email protected],立即清除相关链接

GMT+8, 2019-8-25 05:16 , Processed in 0.069026 second(s), 19 queries .

Powered by Discuz! X3.2

© 2001-2013 Comsenz Inc.

快速回复 返回顶部 返回列表