百度云资源论坛

 找回密码
 立即注册
搜索
热搜: 百度云资源
开启左侧

音乐教父 Mayor.Of.The.Sunset.Strip.2003.1080p.BluRay.x264-TREBLE 5.46GB

[复制链接]
百度云资源 发表于 2019-8-11 09:53:11 | 显示全部楼层 |阅读模式





帖子完整标题:音乐教父 Mayor.Of.The.Sunset.Strip.2003.1080p.BluRay.x264-TREBLE 5.46GB





◎译  名 音乐教父
◎片  名 Mayor of the Sunset Strip
◎上映日期 2003-09-05
◎IMDb评分  7.0/10 from 1394 users
◎片  长 94分钟
◎导  演 George Hickenlooper
◎编  剧 George Hickenlooper
◎主  演 大卫·鲍伊 David Bowie


◎标  签 纪录片 | 摇滚 | 搖滾 | Rodney | 音乐 | 美国纪录片 | 美国 | 纪录

◎简  介  

  Through the glitter and the grunge, from The Monkees to Coldplay, Rodney Bingenheimer--a.k.a. Rodney on the ROQ--has reigned over the Los Angeles music scene for over two decades. A constantly evolving fixture as rock fan, journalist, promoter, club owner and radio DJ on KROQ, Bingenheimer has helped advance every adventurous rock mutation--California pop, glam, punk, goth, new wave, alternative--since he first hit the Sunset Strip during its psychedelic 1960s heyday. Written by Sujit R. Varma
Video
ID                                       : 1
Format                                   : AVC
Format/Info                              : Advanced Video Codec
Format settings, CABAC                   : Yes
Format settings, ReFrames                : 4 frames
Codec ID                                 : V_MPEG4/ISO/AVC
Duration                                 : 1h 30mn
Bit rate                                 : 8 290 Kbps
Width                                    : 1 920 pixels
Height                                   : 1 080 pixels
Display aspect ratio                     : 16:9
Frame rate mode                          : Constant
Frame rate                               : 25.000 fps
Color space                              : YUV
Chroma subsampling                       : 4:2:0
Bit depth                                : 8 bits
Scan type                                : Progressive
Bits/(Pixel*Frame)                       : 0.160
Stream size                              : 5.22 GiB (96%)
Title                                    : English
Writing library                          : x264 core 148 r2665 a01e339
Encoding settings                        : cabac=1 / ref=4 / deblock=1:0:0 / analyse=0x3:0x113 / me=umh / subme=8 / psy=1 / psy_rd=1.00:0.00 / mixed_ref=1 / me_range=16 / chroma_me=1 / trellis=1 / 8x8dct=1 / cqm=0 / deadzone=21,11 / fast_pskip=1 / chroma_qp_offset=-2 / threads=12 / lookahead_threads=2 / sliced_threads=0 / nr=0 / decimate=1 / interlaced=0 / bluray_compat=0 / constrained_intra=0 / bframes=3 / b_pyramid=2 / b_adapt=2 / b_bias=0 / direct=3 / weightb=1 / open_gop=0 / weightp=2 / keyint=240 / keyint_min=24 / scenecut=40 / intra_refresh=0 / rc_lookahead=50 / rc=2pass / mbtree=1 / bitrate=8290 / ratetol=1.0 / qcomp=0.60 / qpmin=0 / qpmax=69 / qpstep=4 / cplxblur=20.0 / qblur=0.5 / ip_ratio=1.40 / aq=1:1.00
Language                                 : English
Default                                  : Yes
Forced                                   : No

Audio
ID                                       : 2
Format                                   : AC-3
Format/Info                              : Audio Coding 3
Mode extension                           : CM (complete main)
Format settings, Endianness              : Big
Codec ID                                 : A_AC3
Duration                                 : 1h 30mn
Bit rate mode                            : Constant
Bit rate                                 : 384 Kbps
Channel(s)                               : 6 channels
Channel positions                        : Front: L C R, Side: L R, LFE
Sampling rate                            : 48.0 KHz
Frame rate                               : 31.250 fps (1536 spf)
Compression mode                         : Lossy
Stream size                              : 248 MiB (4%)
Title                                    : English
Language                                 : English
Default                                  : Yes
Forced                                   : No

Menu
00:00:00.000                             : en:00:00:00.000
00:11:23.840                             : en:00:11:23.840
00:17:50.080                             : en:00:17:50.080
00:26:19.640                             : en:00:26:19.640
00:34:44.240                             : en:00:34:44.240
00:43:10.600                             : en:00:43:10.600
00:51:00.160                             : en:00:51:00.160
00:58:53.000                             : en:00:58:53.000
01:08:01.080                             : en:01:08:01.080
01:11:49.440                             : en:01:11:49.440
01:18:20.960                             : en:01:18:20.960
01:25:02.520                             : en:01:25:02.520




                                                                                                                                                                                                        
                                                                                                                                                                                                                                                                                                                                                                                                                                                                                                                                                                                                                                                                                                                                                                                                                                                      
f2d72ab477c0121351ffa29bbda89c13.torrent (55.17 KB, 下载次数: 0)

回复

使用道具 举报

小黑屋|百度云资源论坛 ( 闽ICP备16005822号-1 )

本网站所有资源来自网络,如无意中侵犯了您的权益,请发邮件至 [email protected],立即清除相关链接

GMT+8, 2019-8-25 05:18 , Processed in 0.065781 second(s), 19 queries .

Powered by Discuz! X3.2

© 2001-2013 Comsenz Inc.

快速回复 返回顶部 返回列表