百度云资源论坛

 找回密码
 立即注册
搜索
热搜: 百度云资源
开启左侧

搭车 Hitch.Hike.1977.RERiP.1080p.BluRay.x264-RRH 6.55GB

[复制链接]
百度云资源 发表于 2019-8-11 09:53:14 | 显示全部楼层 |阅读模式





帖子完整标题:搭车 Hitch.Hike.1977.RERiP.1080p.BluRay.x264-RRH 6.55GB



◎译  名 搭车 / Hitch Hike / The Naked Prey / 凶险旅程
◎片  名 Autostop rosso sangue
◎年  代 1977
◎产  地 意大利
◎类  别 剧情 / 惊悚 / 恐怖 / 犯罪 / 冒险
◎语  言 意大利语 / 英语
◎上映日期 1977-11-25
◎IMDb评分  6.9/10 from 2222 users
◎片  长 104 分钟
◎导  演 Pasquale Festa Campanile
◎编  剧 Aldo Crudo / Pasquale Festa Campanile / Ottavio Jemma / Peter Kane
◎主  演 Franco Nero
       Corinne Clery
       David Hess


◎标  签 意大利 | 情色 | 公路片 | 犯罪 | 1977 | 动作 | Cult | 意大利电影

◎简  介  

  Intense, off-beat Italian thriller is an underexposed classic.
  Fueding married couple, traveling across the country, make the mistake of picking up a hitch hiker who turns out to be a violent bank robber. But that's only the beginning of the story.
  Skillfully well done thriller is gripping in it's wildly turning plot. The cinematography is stylishly good, with some beautiful country side filming locations. The music, though seemingly out of place at times, is great too. In addition there is a decent amount of violence and some nudity.
  The real highlights of this film though are it's three stars, who seem to be in a show-stealing competition all through out the film. Franco Nero does a convincingly good performance as the alcoholic reporter, who has grown tired of his wife. Corinne Clery is fetching and talented as Nero's equally weary wife. The terrific David Hess makes for another great villain, also having played a crazed criminal in both Craven's Last House on the Left (1972) and another Italian exploitation film House on the Edge of the Park (1979).
  imdb comment
Video
ID                                       : 1
Format                                   : AVC
Format/Info                              : Advanced Video Codec
Format settings, CABAC                   : Yes
Format settings, ReFrames                : 4 frames
Codec ID                                 : V_MPEG4/ISO/AVC
Duration                                 : 1h 43mn
Bit rate                                 : 8 015 Kbps
Width                                    : 1 920 pixels
Height                                   : 1 024 pixels
Display aspect ratio                     : 1.85:1
Frame rate mode                          : Constant
Frame rate                               : 23.976 (24000/1001) fps
Color space                              : YUV
Chroma subsampling                       : 4:2:0
Bit depth                                : 8 bits
Scan type                                : Progressive
Bits/(Pixel*Frame)                       : 0.170
Stream size                              : 5.81 GiB (89%)
Writing library                          : x264 core 148 r2665 a01e339
Encoding settings                        : cabac=1 / ref=4 / deblock=1:0:0 / analyse=0x3:0x113 / me=umh / subme=8 / psy=1 / psy_rd=1.00:0.00 / mixed_ref=1 / me_range=16 / chroma_me=1 / trellis=1 / 8x8dct=1 / cqm=0 / deadzone=21,11 / fast_pskip=1 / chroma_qp_offset=-2 / threads=12 / lookahead_threads=2 / sliced_threads=0 / nr=0 / decimate=1 / interlaced=0 / bluray_compat=0 / constrained_intra=0 / bframes=3 / b_pyramid=2 / b_adapt=2 / b_bias=0 / direct=3 / weightb=1 / open_gop=0 / weightp=2 / keyint=240 / keyint_min=23 / scenecut=40 / intra_refresh=0 / rc_lookahead=50 / rc=2pass / mbtree=1 / bitrate=8015 / ratetol=1.0 / qcomp=0.60 / qpmin=0 / qpmax=69 / qpstep=4 / cplxblur=20.0 / qblur=0.5 / vbv_maxrate=62500 / vbv_bufsize=78125 / nal_hrd=none / filler=0 / ip_ratio=1.40 / aq=1:1.00
Default                                  : Yes
Forced                                   : No

Audio #1
ID                                       : 2
Format                                   : FLAC
Format/Info                              : Free Lossless Audio Codec
Codec ID                                 : A_FLAC
Duration                                 : 1h 43mn
Bit rate mode                            : Variable
Bit rate                                 : 502 Kbps
Channel(s)                               : 2 channels
Channel positions                        : Front: L R
Sampling rate                            : 48.0 KHz
Frame rate                               : 11.719 fps (4096 spf)
Bit depth                                : 16 bits
Stream size                              : 373 MiB (6%)
Writing library                          : libFLAC 1.2.1 (UTC 2007-09-17)
Language                                 : Italian
Default                                  : Yes
Forced                                   : No

Audio #2
ID                                       : 3
Format                                   : FLAC
Format/Info                              : Free Lossless Audio Codec
Codec ID                                 : A_FLAC
Duration                                 : 1h 43mn
Bit rate mode                            : Variable
Bit rate                                 : 523 Kbps
Channel(s)                               : 2 channels
Channel positions                        : Front: L R
Sampling rate                            : 48.0 KHz
Frame rate                               : 11.719 fps (4096 spf)
Bit depth                                : 16 bits
Stream size                              : 388 MiB (6%)
Writing library                          : libFLAC 1.2.1 (UTC 2007-09-17)
Language                                 : English
Default                                  : No
Forced                                   : No

Text
ID                                       : 4
Format                                   : UTF-8
Codec ID                                 : S_TEXT/UTF8
Codec ID/Info                            : UTF-8 Plain Text
Duration                                 : 1h 37mn
Bit rate                                 : 38 bps
Count of elements                        : 778
Stream size                              : 27.8 KiB (0%)
Language                                 : English
Default                                  : Yes
Forced                                   : No

Menu
00:00:00.000                             : en:00:00:00.000
00:11:49.417                             : en:00:11:49.417
00:25:23.772                             : en:00:25:23.772
00:42:02.812                             : en:00:42:02.812
00:56:24.798                             : en:00:56:24.798
01:11:11.267                             : en:01:11:11.267
01:21:04.777                             : en:01:21:04.777
01:31:23.978                             : en:01:31:23.978




                                                                                                                                                                                                        
                                                                                                                                                                                                                                                                                                                                                                                                                                                                                                                                                                                                                                                                                                                                                                                                                                                      
59f729f3f896de20f8ab56d4f09f3280.torrent (131.6 KB, 下载次数: 0)

回复

使用道具 举报

小黑屋|百度云资源论坛 ( 闽ICP备16005822号-1 )

本网站所有资源来自网络,如无意中侵犯了您的权益,请发邮件至 [email protected],立即清除相关链接

GMT+8, 2019-8-25 05:19 , Processed in 0.061697 second(s), 19 queries .

Powered by Discuz! X3.2

© 2001-2013 Comsenz Inc.

快速回复 返回顶部 返回列表