百度云资源论坛

 找回密码
 立即注册
搜索
热搜: 百度云资源
开启左侧

乔治·贝斯特:独自一人 George.Best.All.By.Himself.2016.1080p.BluRay.x2... ...

[复制链接]
百度云资源 发表于 2019-8-11 09:53:16 | 显示全部楼层 |阅读模式





帖子完整标题:乔治·贝斯特:独自一人 George.Best.All.By.Himself.2016.1080p.BluRay.x264-MOOVEE 6.56GB




◎译  名 乔治·贝斯特:独自一人
◎片  名 George Best: All by Himself
◎年  代 2016
◎产  地 英国
◎语  言 英语
◎上映日期 2017-02-24(英国)
◎片  长 90分钟
◎导  演 Daniel Gordon
◎编  剧 Peter Ettedgui
◎主  演 George Best
       Anne Best


◎标  签 纪录片 | 足球 | 乔治贝斯特 | 紀錄片 | 运动 | 英国 | 2017观影

◎简  介  

  Maradona. Pelé. Best. Northern Ireland's legendary star remains one of the most naturally gifted footballers there has ever been. Famously called the 'best player in the world' by Pelé, George Best galvanized Manchester United's five-year recovery from the tragedy of the Munich air crash. His skill and exuberance inspired them to win league titles and the European Cup, even though he was little more than a teenager. Tragically, his career in the upper echelons of sport was over before he turned 29, the result of his bruising battle with alcoholism and the crushing pressure of modern fame. (After all, this was Britain in the frenzy of Beatle-mania and 1960s youth culture, where Best was dubbed 'El Beatle' by the world's media.) Producer John Battsek (2016's Oscar-nominated Winter on Fire: Ukraine's Fight for Freedom, The Imposter, Project Nim) and director Daniel Gordon re-team after their acclaimed, Emmy-nominated Hillsborough to deliver a heart-breaking portrait of one of the world's truly great sporting talents, whose extraordinary gift was decimated by his own addiction.
Video
ID                                       : 1
Format                                   : AVC
Format/Info                              : Advanced Video Codec
Format settings, CABAC                   : Yes
Format settings, ReFrames                : 5 frames
Codec ID                                 : V_MPEG4/ISO/AVC
Duration                                 : 1h 32mn
Bit rate                                 : 9 548 Kbps
Width                                    : 1 920 pixels
Height                                   : 808 pixels
Display aspect ratio                     : 2.40:1
Frame rate mode                          : Constant
Frame rate                               : 25.000 fps
Color space                              : YUV
Chroma subsampling                       : 4:2:0
Bit depth                                : 8 bits
Scan type                                : Progressive
Bits/(Pixel*Frame)                       : 0.246
Stream size                              : 6.14 GiB (94%)
Writing library                          : x264 core 150 r2833kMod df79067
Encoding settings                        : cabac=1 / ref=5 / deblock=1:0:0 / analyse=0x3:0x133 / me=umh / subme=8 / psy=1 / fade_compensate=0.00 / psy_rd=1.00:0.00 / mixed_ref=1 / me_range=16 / chroma_me=1 / trellis=1 / 8x8dct=1 / cqm=0 / deadzone=21,11 / fast_pskip=0 / chroma_qp_offset=-2 / threads=18 / lookahead_threads=3 / sliced_threads=0 / nr=0 / decimate=1 / interlaced=0 / bluray_compat=0 / constrained_intra=0 / bframes=3 / b_pyramid=2 / b_adapt=1 / b_bias=0 / direct=1 / weightb=1 / open_gop=0 / weightp=2 / keyint=250 / keyint_min=25 / scenecut=40 / intra_refresh=0 / rc_lookahead=40 / rc=2pass / mbtree=1 / bitrate=9548 / ratetol=1.0 / qcomp=0.60 / qpmin=0 / qpmax=69 / qpstep=4 / cplxblur=20.0 / qblur=0.5 / ip_ratio=1.40 / aq=1:1.00
Language                                 : English
Default                                  : Yes
Forced                                   : No

Audio
ID                                       : 2
Format                                   : AC-3
Format/Info                              : Audio Coding 3
Mode extension                           : CM (complete main)
Format settings, Endianness              : Big
Codec ID                                 : A_AC3
Duration                                 : 1h 32mn
Bit rate mode                            : Constant
Bit rate                                 : 640 Kbps
Channel(s)                               : 2 channels
Channel positions                        : Front: L R
Sampling rate                            : 48.0 KHz
Frame rate                               : 31.250 fps (1536 spf)
Compression mode                         : Lossy
Stream size                              : 422 MiB (6%)
Default                                  : Yes
Forced                                   : No

Menu
00:00:00.000                             : en:00:00:00.000
00:05:09.200                             : en:00:05:09.200
00:13:04.280                             : en:00:13:04.280
00:22:08.160                             : en:00:22:08.160
00:27:33.600                             : en:00:27:33.600
00:33:34.520                             : en:00:33:34.520
00:43:35.240                             : en:00:43:35.240
00:50:12.520                             : en:00:50:12.520
00:58:15.160                             : en:00:58:15.160
01:04:30.400                             : en:01:04:30.400
01:15:54.560                             : en:01:15:54.560
01:29:59.560                             : en:01:29:59.560




                                                                                                                                                                                                        
                                                                                                                                                                                                                                                                                                                                                                                                                                                                                                                                                                                                                                                                                                                                                                                                                                                      
110a52e9908fc3e8c19b9cd7a439053b.torrent (131.82 KB, 下载次数: 0)

回复

使用道具 举报

小黑屋|百度云资源论坛 ( 闽ICP备16005822号-1 )

本网站所有资源来自网络,如无意中侵犯了您的权益,请发邮件至 [email protected],立即清除相关链接

GMT+8, 2019-8-25 05:17 , Processed in 0.063836 second(s), 19 queries .

Powered by Discuz! X3.2

© 2001-2013 Comsenz Inc.

快速回复 返回顶部 返回列表