百度云资源论坛

 找回密码
 立即注册
搜索
热搜: 百度云资源
开启左侧

食人帝国 Eaten.Alive.1980.1080p.BluRay.x264-SADPANDA 6.55GB

[复制链接]
百度云资源 发表于 2019-8-11 09:53:17 | 显示全部楼层 |阅读模式




帖子完整标题:食人帝国 Eaten.Alive.1980.1080p.BluRay.x264-SADPANDA 6.55GB





◎译  名 食人帝国 / Eaten Alive
◎片  名 Mangiati vivi
◎年  代 1980
◎产  地 意大利
◎类  别 恐怖 / 冒险
◎语  言 意大利语
◎上映日期 1980-03-20
◎IMDb评分  5.2/10 from 3217 users
◎片  长 92 分钟
◎导  演 Umberto Lenzi
◎主  演 Robert Kerman
       Janet Agren
       Ivan Rassimov


◎标  签 食人帝国 | 食人族 | 恐怖 | 意大利 | 血腥 | 意大利电影 | 恐怖电影 | 惊悚

◎简  介  

  谢丽娜为了寻找失踪的姐姐戴安娜,和冒险家马克一起深入新几内亚的恐怖丛林,丛林中有一支古老的部落,他们有着狂热的宗教信仰,并还保留着残忍的活人祭祀,也就是所谓的“净化”。追寻中,他俩被食人族捕获,首领不愿放走戴安娜,又把谢丽娜认作是自己的新妾,肆意奴役...
Video
ID                                       : 1
Format                                   : AVC
Format/Info                              : Advanced Video Codec
Format settings                          : CABAC / 4 Ref Frames
Format settings, CABAC                   : Yes
Format settings, RefFrames               : 4 frames
Codec ID                                 : V_MPEG4/ISO/AVC
Duration                                 : 1 h 32 min
Bit rate                                 : 9 378 kb/s
Width                                    : 1 808 pixels
Height                                   : 1 080 pixels
Display aspect ratio                     : 5:3
Frame rate mode                          : Constant
Frame rate                               : 23.976 (24000/1001) FPS
Color space                              : YUV
Chroma subsampling                       : 4:2:0
Bit depth                                : 8 bits
Scan type                                : Progressive
Bits/(Pixel*Frame)                       : 0.200
Stream size                              : 6.06 GiB (93%)
Writing library                          : x264 core 155 r2901 7d0ff22
Encoding settings                        : cabac=1 / ref=4 / deblock=1:-3:-3 / analyse=0x3:0x113 / me=umh / subme=8 / psy=1 / psy_rd=1.00:0.25 / mixed_ref=1 / me_range=24 / chroma_me=1 / trellis=1 / 8x8dct=1 / cqm=0 / deadzone=21,11 / fast_pskip=1 / chroma_qp_offset=-4 / threads=30 / lookahead_threads=5 / sliced_threads=0 / nr=0 / decimate=1 / interlaced=0 / bluray_compat=0 / constrained_intra=0 / bframes=3 / b_pyramid=2 / b_adapt=1 / b_bias=0 / direct=3 / weightb=1 / open_gop=0 / weightp=2 / keyint=240 / keyint_min=24 / scenecut=40 / intra_refresh=0 / rc_lookahead=50 / rc=2pass / mbtree=1 / bitrate=9378 / ratetol=1.0 / qcomp=0.60 / qpmin=0 / qpmax=69 / qpstep=4 / cplxblur=20.0 / qblur=0.5 / ip_ratio=1.40 / aq=1:0.75
Default                                  : Yes
Forced                                   : No

Audio #1
ID                                       : 2
Format                                   : FLAC
Format/Info                              : Free Lossless Audio Codec
Codec ID                                 : A_FLAC
Duration                                 : 1 h 32 min
Bit rate mode                            : Variable
Bit rate                                 : 301 kb/s
Channel(s)                               : 2 channels
Channel positions                        : Front: L R
Sampling rate                            : 48.0 kHz
Frame rate                               : 11.719 FPS (4096 SPF)
Bit depth                                : 16 bits
Stream size                              : 199 MiB (3%)
Writing library                          : libFLAC 1.2.1 (UTC 2007-09-17)
Language                                 : Italian
Default                                  : Yes
Forced                                   : No

Audio #2
ID                                       : 3
Format                                   : FLAC
Format/Info                              : Free Lossless Audio Codec
Codec ID                                 : A_FLAC
Duration                                 : 1 h 32 min
Bit rate mode                            : Variable
Bit rate                                 : 456 kb/s
Channel(s)                               : 2 channels
Channel positions                        : Front: L R
Sampling rate                            : 48.0 kHz
Frame rate                               : 11.719 FPS (4096 SPF)
Bit depth                                : 16 bits
Stream size                              : 302 MiB (4%)
Writing library                          : libFLAC 1.2.1 (UTC 2007-09-17)
Language                                 : English
Default                                  : No
Forced                                   : No

Text
ID                                       : 4
Format                                   : UTF-8
Codec ID                                 : S_TEXT/UTF8
Codec ID/Info                            : UTF-8 Plain Text
Duration                                 : 1 h 29 min
Bit rate                                 : 39 b/s
Count of elements                        : 635
Stream size                              : 25.9 KiB (0%)
Language                                 : English
Default                                  : Yes
Forced                                   : No

Menu
00:00:00.000                             : en:00:00:00.000
00:12:25.828                             : en:00:12:25.828
00:24:52.157                             : en:00:24:52.157
00:47:01.193                             : en:00:47:01.193
00:52:17.801                             : en:00:52:17.801
01:10:24.887                             : en:01:10:24.887
01:19:21.173                             : en:01:19:21.173
01:28:53.745                             : en:01:28:53.745




                                                                                                                                                                                                        
                                                                                                                                                                                                                                                                                                                                                                                                                                                                                                                                                                                                                                                                                                                                                                                                                                                      
edb51e023203adc478b01ff98ebc7349.torrent (131.61 KB, 下载次数: 0)

回复

使用道具 举报

小黑屋|百度云资源论坛 ( 闽ICP备16005822号-1 )

本网站所有资源来自网络,如无意中侵犯了您的权益,请发邮件至 [email protected],立即清除相关链接

GMT+8, 2019-8-25 05:19 , Processed in 0.071799 second(s), 19 queries .

Powered by Discuz! X3.2

© 2001-2013 Comsenz Inc.

快速回复 返回顶部 返回列表