百度云资源论坛

 找回密码
 立即注册
搜索
热搜: 百度云资源
开启左侧

毁灭:罗杰·科曼版“神奇四侠”幕后秘史 Doomed.The.Untold.Story... ...

[复制链接]
百度云资源 发表于 2019-8-11 09:53:19 | 显示全部楼层 |阅读模式





帖子完整标题:毁灭:罗杰·科曼版“神奇四侠”幕后秘史 Doomed.The.Untold.Story.of.Roger.Cormans.the.Fantastic.Four.2015.1080p.BluRay.x264-SADPANDA 5.46GB



[img]https://img1.doubanio.com/view/photo/l_ratio_poster/public/p2404887521.jpg[img]

◎译  名 毁灭:罗杰·科曼版“神奇四侠”幕后秘史
◎片  名 Doomed: The Untold Story of Roger Corman's the Fantastic Four
◎年  代 2015
◎产  地 美国
◎类  别 纪录片
◎语  言 英语
◎上映日期 2015-07-10
◎IMDb评分  6.9/10 from 661 users
◎片  长 85分钟
◎导  演 Marty Langford
◎编  剧 Marty Langford
◎主  演 Carl Ciarfalio
       罗杰·科曼 Roger Corman
       Joseph Culp


◎标  签 Film.Histroy | Documentary | B-Movies | 2015 | 2010s

◎简  介  

  A documentary that tells the history of the ill-fated movie version of the Fantastic Four that was executive produced by Roger Corman.
Video
ID                                       : 1
Format                                   : AVC
Format/Info                              : Advanced Video Codec
Format settings, CABAC                   : Yes
Format settings, ReFrames                : 4 frames
Codec ID                                 : V_MPEG4/ISO/AVC
Duration                                 : 1h 24mn
Bit rate                                 : 9 057 Kbps
Width                                    : 1 920 pixels
Height                                   : 1 080 pixels
Display aspect ratio                     : 16:9
Frame rate mode                          : Constant
Frame rate                               : 23.976 (24000/1001) fps
Color space                              : YUV
Chroma subsampling                       : 4:2:0
Bit depth                                : 8 bits
Scan type                                : Progressive
Bits/(Pixel*Frame)                       : 0.182
Stream size                              : 5.34 GiB (98%)
Writing library                          : x264 core 148 r2744 b97ae06
Encoding settings                        : cabac=1 / ref=4 / deblock=1:-3:-3 / analyse=0x3:0x113 / me=umh / subme=8 / psy=1 / psy_rd=1.00:0.25 / mixed_ref=1 / me_range=24 / chroma_me=1 / trellis=1 / 8x8dct=1 / cqm=0 / deadzone=21,11 / fast_pskip=1 / chroma_qp_offset=-4 / threads=30 / lookahead_threads=5 / sliced_threads=0 / nr=0 / decimate=1 / interlaced=0 / bluray_compat=0 / constrained_intra=0 / bframes=3 / b_pyramid=2 / b_adapt=1 / b_bias=0 / direct=3 / weightb=1 / open_gop=0 / weightp=2 / keyint=240 / keyint_min=24 / scenecut=40 / intra_refresh=0 / rc_lookahead=50 / rc=2pass / mbtree=1 / bitrate=9057 / ratetol=1.0 / qcomp=0.60 / qpmin=0 / qpmax=69 / qpstep=4 / cplxblur=20.0 / qblur=0.5 / ip_ratio=1.40 / aq=1:0.75
Default                                  : Yes
Forced                                   : No

Audio
ID                                       : 2
Format                                   : AC-3
Format/Info                              : Audio Coding 3
Mode extension                           : CM (complete main)
Format settings, Endianness              : Big
Codec ID                                 : A_AC3
Duration                                 : 1h 24mn
Bit rate mode                            : Constant
Bit rate                                 : 192 Kbps
Channel(s)                               : 2 channels
Channel positions                        : Front: L R
Sampling rate                            : 48.0 KHz
Frame rate                               : 31.250 fps (1536 spf)
Compression mode                         : Lossy
Stream size                              : 116 MiB (2%)
Language                                 : English
Default                                  : Yes
Forced                                   : No

Menu
00:00:00.000                             : en:00:00:00.000
00:03:19.950                             : en:00:03:19.950
00:09:36.493                             : en:00:09:36.493
00:23:30.743                             : en:00:23:30.743
00:46:40.965                             : en:00:46:40.965
00:55:15.521                             : en:00:55:15.521
01:09:53.898                             : en:01:09:53.898
01:22:07.423                             : en:01:22:07.423




                                                                                                                                                                                                        
                                                                                                                                                                                                                                                                                                                                                                                                                                                                                                                                                                                                                                                                                                                                                                                                                                                      
544fd789dbacbf1fe9eea890f5dee143.torrent (109.96 KB, 下载次数: 0)

回复

使用道具 举报

小黑屋|百度云资源论坛 ( 闽ICP备16005822号-1 )

本网站所有资源来自网络,如无意中侵犯了您的权益,请发邮件至 [email protected],立即清除相关链接

GMT+8, 2019-8-25 05:16 , Processed in 0.059539 second(s), 19 queries .

Powered by Discuz! X3.2

© 2001-2013 Comsenz Inc.

快速回复 返回顶部 返回列表