百度云资源论坛

 找回密码
 立即注册
搜索
热搜: 百度云资源
开启左侧

何处寻真相.Where the Truth Lies.2005.CA.UK.AMZN.WEB-DL.1920x816p.x264.AC...

[复制链接]
百度云资源 发表于 2019-8-14 08:56:50 | 显示全部楼层 |阅读模式
何处寻真相.Where the Truth Lies.2005.CA.UK.AMZN.WEB-DL.1920x816p.x264.AC3-KOOK.[中英双字]


无广告,无水印,欢迎转载
独家中英双字幕
不定时做种,保证出种,请耐心等待.


1.jpg


※※※※※※※ 影片信息 ※※※※※※※


◎片   名 Where the Truth Lies
◎译   名 何处寻真相 / 赤裸真相 / 真相何在
◎年   代 2005
◎国   家 加拿大 / 英国
◎类   别 剧情 / 悬疑 / 惊悚
◎语   言 英语
◎上映日 期 2005-10-07
◎字   幕 中英字幕/英中字幕/简体字幕/繁体字幕/英文字幕
◎IMDB 评分  6.5/10 from 16367 users
◎豆瓣 评分  6.7/10 from 3256 users
◎视频尺 寸  1920x816p
◎片   长 1.46.25
◎导   演 阿托姆·伊戈扬
◎编   剧  阿托姆·伊戈扬
◎主   演 凯文·贝肯 / 科林·费尔斯 / 艾莉森·洛曼 / David Hayman




#435

◎简  介




  八十年代,女记者卡伦(Alison Lohman 饰)正著手调查十五年前一桩酒店凶案的真相。当事人兰尼(Kevin Bacon 饰)与文斯(Colin Firth 饰)是著名搭档艺人,1972年,两人为慈善事业筹款而进行巡回演出期间,人们在他们的套房中发现了一具女尸……卡伦先后接近两人,得到了兰尼的自传手稿,兰尼声称死者莫琳因嗑药过量而溺毙,但卡伦将兰尼的生活习惯与自传两相佐证后发现疑点重重。当年兰尼与文斯事业顺利,于是黑社会邀请他们演出,某夜,校报记者莫琳同两人上床,无意中发现文斯的同性恋倾向并以此要挟。兰尼怀疑吸毒成瘾的文斯杀死莫琳,但两人在黑社会庇护下都逃避了制裁。卡伦对两人各自的陈述不置可否之际,真正的凶手却自己浮出了水面……
  本片获2006年加拿大吉尼奖最佳剧本奖。










※※※※※※※ 参数信息 ※※※※※※※






General
Unique ID                      : 214685388760710267856502746818146256628 (0xA182E6E1D91533C9A20E7BB070D0C6F4)


Format                         : Matroska
Format version                 : Version 4 / Version 2
File size                      : 9.71 GiB
Duration                       : 1h 46mn
Overall bit rate mode          : Variable
Overall bit rate               : 13.1 Mbps
Movie name                     : KOOK
Encoded date                   : UTC 2019-08-10 05:13:00
Writing application            : mkvmerge v7.7.0 ('Six Voices') 32bit built on Feb 28 2015 23:23:00
Writing library                : libebml v1.3.1 + libmatroska v1.4.2
Attachements                   : 正式海报 美国.jpg / STKAITI.TTF / fzgljw.ttf


Video
ID                             : 1
Format                         : AVC
Format/Info                    : Advanced Video Codec
Format settings, CABAC         : Yes
Format settings, ReFrames      : 4 frames
Codec ID                       : V_MPEG4/ISO/AVC
Duration                       : 1h 46mn
Bit rate mode                  : Variable
Bit rate                       : 12.8 Mbps
Maximum bit rate               : 15.0 Mbps
Width                          : 1 920 pixels
Height                         : 816 pixels
Display aspect ratio           : 2.35:1
Frame rate mode                : Constant
Frame rate                     : 23.976 (24000/1001) fps
Color space                    : YUV
Chroma subsampling             : 4:2:0
Bit depth                      : 8 bits
Scan type                      : Progressive
Bits/(Pixel*Frame)             : 0.341
Stream size                    : 9.52 GiB (98%)
Writing library                : x264 core 148 r2623 d5b2374
Encoding settings              : cabac=1 / ref=4 / deblock=1:-1:-1 / analyse=0x3:0x133 / me=umh / subme=9 / psy=1 / psy_rd=1.00:0.15 / mixed_ref=1 / me_range=24 / chroma_me=1 / trellis=2 / 8x8dct=1 / cqm=0 / deadzone=21,11 / fast_pskip=1 / chroma_qp_offset=-3 / threads=25 / lookahead_threads=4 / sliced_threads=0 / nr=150 / decimate=1 / interlaced=0 / bluray_compat=0 / constrained_intra=0 / bframes=8 / b_pyramid=2 / b_adapt=2 / b_bias=0 / direct=3 / weightb=1 / open_gop=0 / weightp=2 / keyint=120 / keyint_min=61 / scenecut=0 / intra_refresh=0 / rc_lookahead=120 / rc=crf / mbtree=1 / crf=18.0 / qcomp=0.60 / qpmin=0 / qpmax=69 / qpstep=4 / vbv_maxrate=15000 / vbv_bufsize=31250 / crf_max=0.0 / nal_hrd=vbr / filler=0 / ip_ratio=1.40 / aq=3:1.00
Default                        : Yes
Forced                         : No
Color range                    : Limited
Color primaries                : BT.709
Transfer characteristics       : BT.709
Matrix coefficients            : BT.709


Audio
ID                             : 2
Format                         : E-AC-3
Format/Info                    : Audio Coding 3
Format settings, Endianness    : Big
Codec ID                       : A_EAC3
Duration                       : 1h 46mn
Bit rate mode                  : Constant
Bit rate                       : 224 Kbps
Channel(s)                     : 2 channels
Channel positions              : Front: L R
Sampling rate                  : 48.0 KHz
Frame rate                     : 187.500 fps (256 spf)
Compression mode               : Lossy
Stream size                    : 171 MiB (2%)
Language                       : English
Default                        : Yes
Forced                         : No


Text #1
ID                             : 3
Format                         : ASS
Codec ID                       : S_TEXT/ASS
Codec ID/Info                  : Advanced Sub Station Alpha
Duration                       : 1h 41mn
Bit rate                       : 316 bps
Count of elements              : 1463
Compression mode               : Lossless
Stream size                    : 236 KiB (0%)
Title                          : 中英字幕
Language                       : Chinese
Default                        : Yes
Forced                         : No


Text #2
ID                             : 4
Format                         : ASS
Codec ID                       : S_TEXT/ASS
Codec ID/Info                  : Advanced Sub Station Alpha
Duration                       : 1h 41mn
Bit rate                       : 472 bps
Count of elements              : 1463
Compression mode               : Lossless
Stream size                    : 352 KiB (0%)
Title                          : 英中字幕
Language                       : English
Default                        : No
Forced                         : No


Text #3
ID                             : 5
Format                         : ASS
Codec ID                       : S_TEXT/ASS
Codec ID/Info                  : Advanced Sub Station Alpha
Duration                       : 1h 41mn
Bit rate                       : 142 bps
Count of elements              : 1463
Compression mode               : Lossless
Stream size                    : 106 KiB (0%)
Title                          : 简体字幕
Language                       : Chinese
Default                        : No
Forced                         : No


Text #4
ID                             : 6
Format                         : ASS
Codec ID                       : S_TEXT/ASS
Codec ID/Info                  : Advanced Sub Station Alpha
Duration                       : 1h 41mn
Bit rate                       : 142 bps
Count of elements              : 1463
Compression mode               : Lossless
Stream size                    : 106 KiB (0%)
Title                          : 繁体字幕
Language                       : Chinese
Default                        : No
Forced                         : No


Text #5
ID                             : 7
Format                         : ASS
Codec ID                       : S_TEXT/ASS
Codec ID/Info                  : Advanced Sub Station Alpha
Duration                       : 1h 41mn
Bit rate                       : 231 bps
Count of elements              : 1463
Compression mode               : Lossless
Stream size                    : 172 KiB (0%)
Title                          : 英文字幕
Language                       : English
Default                        : No
Forced                         : No

                                                                                                                                                                                                        
                                                                                                                                                                                                                                                                                                                                                                                                                                                                                                                                                                                                                                                                                                                                                                                                                                                      
99e78a023bf4c61b0b051363c494c5e3.torrent (101.43 KB, 下载次数: 0)

回复

使用道具 举报

小黑屋|百度云资源论坛 ( 闽ICP备16005822号-1 )

本网站所有资源来自网络,如无意中侵犯了您的权益,请发邮件至 [email protected],立即清除相关链接

GMT+8, 2019-8-25 05:16 , Processed in 0.064915 second(s), 19 queries .

Powered by Discuz! X3.2

© 2001-2013 Comsenz Inc.

快速回复 返回顶部 返回列表