百度云资源论坛

 找回密码
 立即注册
搜索
热搜: 百度云资源
开启左侧

罪与罚/罪恶与良心 Crime.and.Punishment.1935.720p.BluRay.x264-GHOULS 3...

[复制链接]
百度云资源 发表于 2019-8-14 08:57:05 | 显示全部楼层 |阅读模式





帖子完整标题:罪与罚/罪恶与良心 Crime.and.Punishment.1935.720p.BluRay.x264-GHOULS 3.28GB


◎译  名 罪与罚 / 罪恶与良心
◎片  名 Crime and Punishment
◎年  代 1935
◎产  地 美国
◎类  别 剧情
◎语  言 英语
◎上映日期 1935-11-22
◎IMDb评分  7.0/10 from 1523 users
◎导  演 Josef von Sternberg
◎编  剧 Joseph Anthony / S.K. Lauren
◎主  演 Peter Lorre
       Edward Arnold
       Marian Marsh


◎标  签 名著改编 | 1930s | 美国电影 | 美国 | 黑白 | PeterLorre | 约瑟夫冯斯登堡 | Josef_von_Sternberg

◎简  介  

  暂无相关剧情介绍
Video
ID                                       : 1
Format                                   : AVC
Format/Info                              : Advanced Video Codec
Format settings                          : CABAC / 12 Ref Frames
Format settings, CABAC                   : Yes
Format settings, Reference frames        : 12 frames
Codec ID                                 : V_MPEG4/ISO/AVC
Duration                                 : 1 h 27 min
Bit rate                                 : 4 713 kb/s
Width                                    : 960 pixels
Height                                   : 720 pixels
Display aspect ratio                     : 4:3
Frame rate mode                          : Constant
Frame rate                               : 23.976 (24000/1001) FPS
Color space                              : YUV
Chroma subsampling                       : 4:2:0
Bit depth                                : 8 bits
Scan type                                : Progressive
Bits/(Pixel*Frame)                       : 0.284
Stream size                              : 2.89 GiB (88%)
Writing library                          : x264 core 158 r2984 3759fcb
Encoding settings                        : cabac=1 / ref=12 / deblock=1:-3:-3 / analyse=0x3:0x133 / me=umh / subme=9 / psy=1 / psy_rd=1.00:0.00 / mixed_ref=1 / me_range=24 / chroma_me=1 / trellis=1 / 8x8dct=1 / cqm=0 / deadzone=21,11 / fast_pskip=0 / chroma_qp_offset=-2 / threads=22 / lookahead_threads=3 / sliced_threads=0 / nr=0 / decimate=1 / interlaced=0 / bluray_compat=0 / constrained_intra=0 / bframes=8 / b_pyramid=2 / b_adapt=2 / b_bias=0 / direct=3 / weightb=1 / open_gop=0 / weightp=2 / keyint=250 / keyint_min=23 / scenecut=40 / intra_refresh=0 / rc_lookahead=60 / rc=2pass / mbtree=1 / bitrate=4713 / ratetol=1.0 / qcomp=0.60 / qpmin=0 / qpmax=69 / qpstep=4 / cplxblur=20.0 / qblur=0.5 / vbv_maxrate=62500 / vbv_bufsize=78125 / nal_hrd=none / filler=0 / ip_ratio=1.40 / aq=1:1.00
Default                                  : Yes
Forced                                   : No

Audio
ID                                       : 2
Format                                   : FLAC
Format/Info                              : Free Lossless Audio Codec
Codec ID                                 : A_FLAC
Duration                                 : 1 h 27 min
Bit rate mode                            : Variable
Bit rate                                 : 622 kb/s
Channel(s)                               : 1 channel
Channel layout                           : C
Sampling rate                            : 48.0 kHz
Frame rate                               : 10.417 FPS (4608 SPF)
Bit depth                                : 24 bits
Compression mode                         : Lossless
Stream size                              : 391 MiB (12%)
Writing library                          : Lavf58.20.100
Language                                 : English
Default                                  : Yes
Forced                                   : No

Menu
00:00:00.000                             : en:Chapter 01
00:07:10.764                             : en:Chapter 02
00:12:45.181                             : en:Chapter 03
00:20:24.765                             : en:Chapter 04
00:26:52.653                             : en:Chapter 05
00:35:36.426                             : en:Chapter 06
00:42:00.935                             : en:Chapter 07
00:51:55.529                             : en:Chapter 08
00:58:56.533                             : en:Chapter 09
01:05:27.215                             : en:Chapter 10
01:13:15.933                             : en:Chapter 11
01:20:56.435                             : en:Chapter 12




                                                                                                                                                                                                        
                                                                                                                                                                                                                                                                                                                                                                                                                                                                                                                                                                                                                                                                                                                                                                                                                                                      
625339588fe61036bda6920e94bf9a84.torrent (33.65 KB, 下载次数: 0)

回复

使用道具 举报

小黑屋|百度云资源论坛 ( 闽ICP备16005822号-1 )

本网站所有资源来自网络,如无意中侵犯了您的权益,请发邮件至 [email protected],立即清除相关链接

GMT+8, 2019-8-26 16:23 , Processed in 0.067045 second(s), 19 queries .

Powered by Discuz! X3.2

© 2001-2013 Comsenz Inc.

快速回复 返回顶部 返回列表